开启左侧

[喜剧片] 广播时间/广播剧的时间 Welcome.Back.Mr.McDonald.1997.JAPANESE.1080p.AMZN.WEBRip.DDP2.0.x264

蓝鸟 发表于 2021-1-12 14:47:38 | 显示全部楼层 |阅读模式
20190801120031.jpg


译  名 广播时间 / Welcome Back, Mr. McDonald / 广播剧的时间 / 心情直播,不NG(台) / 爆肚风云(港)
片  名 ラヂオの時間
年  代 1997
产  地 日本
类  别 喜剧
语  言 日语
上映日期 1997-11-08
IMDb评分  7.8/10 from 1494 users
IMDb链接  https://www.imdb.com/title/tt0133170
豆瓣评分 8.5/10 from 9835 users
豆瓣链接 https://movie.douban.com/subject/1304626/
片  长 103分钟
导  演 三谷幸喜 K?ki Mitani
编  剧 三谷幸喜 K?ki Mitani
主  演 西村雅彦 Masahiko Nishimura
       铃木京香 Kyoka Suzuki
       唐泽寿明 Toshiaki Karasawa
       户田惠子 Keiko Toda
       井上顺 Jun Inoue
       细川俊之 Toshiyuki Hosokawa
       奥贯薫 Kaoru Okunuki
       梶原善 Zen Kajiwara
       茂吕师冈 Moro Morooka
       近藤芳正 Yoshimasa Kond?
       布施明 Akira Fuse
       藤村俊二 Shunji Fujimura
       并木史郎 Shir? Namiki
       田口浩正 Hiromasa Taguchi
       渡边谦 Ken Watanabe
       市川染五郎 Somegoro Ichikawa
       佐藤B作 Bsaku Satoh
       宫本信子 Nobuko Miyamoto
       桃井薰 Kaori Momoi
       远藤久美子 Kumiko Endo
       小野武彦 Takehiko Ono

标  签 三谷幸喜 | 日本 | 喜剧 | 日本电影 | 1997 | 唐泽寿明 | 电影 | 日影
简  介  
  某电台举办广播剧剧本征选大赛,结果只有普通家庭主妇铃木美弥子(铃木京香 饰)一部作品提交并入选。该故事讲述的是热海一名主妇与渔夫的纯爱故事。午夜将近,直播在即。节目统筹牛岛龙彦(西村雅彦 饰)莅临现场,协调各个部门的运作。然而在这高度紧张的关键时刻,各种状况层出不穷。高傲的女演员千本信子(户田惠子 饰)任性地将女主角“律子”的名字改成“玛丽·简”,演对手戏的男演员滨村錠(細川俊之 饰)也不甘于“寅造”这一土了土气的名字。为了与这番洋范儿相匹配,牛岛只得拜托铃木改写故事背景。随着各种各样无理改动的出炉,这出纯爱广播剧早已看不出原来的样子……本片为名编剧三谷幸喜的导演处女作。
获奖情况  
  第21届日本电影学院奖(1998)
  话题奖 最具话题演员奖 西村雅彦
  最佳影片(提名)
  最佳导演(提名) 三谷幸喜
  最佳编剧 三谷幸喜
  最佳男主角(提名) 唐泽寿明
  最佳女主角(提名) 铃木京香
  最佳女配角(提名) 户田惠子
  最佳摄影(提名) 高间贤治
  最佳照明(提名) 上保正道
  最佳录音 瀬川彻夫
  最佳剪辑(提名) 阿部浩英
  第22届报知映画赏(1997)
  最佳影片 三谷幸喜


该资源信息参数
  • Video
  • ID                                       : 1
  • Format                                   : AVC
  • Format/Info                              : Advanced Video Codec
  • Format profile                           : High@L4
  • Format settings                          : CABAC / 4 Ref Frames
  • Format settings, CABAC                   : Yes
  • Format settings, Reference frames        : 4 frames
  • Codec ID                                 : V_MPEG4/ISO/AVC
  • Duration                                 : 1 h 43 min
  • Bit rate                                 : 13.5 Mb/s
  • Width                                    : 1 920 pixels
  • Height                                   : 1 080 pixels
  • Display aspect ratio                     : 16:9
  • Frame rate mode                          : Constant
  • Frame rate                               : 23.976 (24000/1001) FPS
  • Color space                              : YUV
  • Chroma subsampling                       : 4:2:0
  • Bit depth                                : 8 bits
  • Scan type                                : Progressive
  • Bits/(Pixel*Frame)                       : 0.272
  • Stream size                              : 9.78 GiB (98%)
  • Default                                  : Yes
  • Forced                                   : No
  • Color range                              : Limited
  • Color primaries                          : BT.709
  • Transfer characteristics                 : BT.709
  • Matrix coefficients                      : BT.709
  • Audio
  • ID                                       : 2
  • Format                                   : E-AC-3
  • Format/Info                              : Enhanced AC-3
  • Commercial name                          : Dolby Digital Plus
  • Codec ID                                 : A_EAC3
  • Duration                                 : 1 h 43 min
  • Bit rate mode                            : Constant
  • Bit rate                                 : 224 kb/s
  • Channel(s)                               : 2 channels
  • Channel layout                           : L R
  • Sampling rate                            : 48.0 kHz
  • Frame rate                               : 31.250 FPS (1536 SPF)
  • Compression mode                         : Lossy
  • Stream size                              : 166 MiB (2%)
  • Language                                 : Japanese
  • Service kind                             : Complete Main
  • Default                                  : Yes
  • Forced                                   : No
  • Text
  • ID                                       : 3
  • Format                                   : UTF-8
  • Codec ID                                 : S_TEXT/UTF8
  • Codec ID/Info                            : UTF-8 Plain Text
  • Duration                                 : 1 h 43 min
  • Bit rate                                 : 56 b/s
  • Count of elements                        : 1531
  • Stream size                              : 43.0 KiB (0%)
  • Language                                 : English
  • Default                                  : Yes
  • Forced                                   : No

复制代码



20190801120031.jpg

20190801120031.jpg

20190801120031.jpg


4K321提示您  点击下方附件名称  马上开始下载

广播时间/广播剧的时间 Welcome.Back.Mr.McDonald.1997.JAPANESE.1080p.AMZN.WEBRip.DDP2.0.x264-NOGRP 9.94GB

Welcome.Back.Mr.McDonald.1997.JAPANESE.1080p.AMZN.WEBRip.DDP2.0.x264-NOGRP.torrent ( 50.29 KB )




               
回复

使用道具 举报

全部回复0 显示全部楼层

声明:您在社区发表的所有信息仅代表用户个人观点,与本网站立场无关,希望各位烧友理性发言,不发表违法国家法律禁止的话题。

您需要登录后才可以回帖 登录 | 立即注册

本版积分规则

联系客服 关注微信 下载APP 返回顶部 返回列表