开启左侧

[其它] 我是女人/铿锵玫瑰 I.Am.Woman.2019.1080p.AMZN.WEBRip.DDP5.1.x264-TEPES 6.88GB

蓝鸟 发表于 2021-1-12 14:24:41 | 显示全部楼层 |阅读模式
20190801120031.jpg


译  名 我是女人 / 铿锵玫瑰
片  名 I Am Woman
年  代 2019
产  地 澳大利亚
类  别 传记
语  言 英语
上映日期 2019-09-05(多伦多电影节) / 2020-09-11(美国)
IMDb评分  6.2/10 from 180 users
IMDb链接  https://www.imdb.com/title/tt9185316
豆瓣评分 0/10 from 0 users
豆瓣链接 https://movie.douban.com/subject/30359065/
片  长 116分钟
编  剧 艾玛·延森 Emma Jensen
主  演 丹妮尔·麦克唐纳 Danielle Macdonald
       埃文·彼得斯 Evan Peters
       马修·卡德罗普 Matthew Cardarople
       蒂尔达·格哈姆-哈维 Tilda Cobham-Hervey
       达斯蒂·斯隆格 Dusty Sorg
       Rita Rani

标  签 澳大利亚 | 传记 | 第24届釜山国际电影节 | 海伦·瑞迪 | 传记片 | 2019TIFF | 电影院 | 电影
简  介  
  埃文·彼得斯出演讲述澳洲女歌手海伦·瑞迪的传记片[我是女人](I Am Woman,暂译)。导演Unjoo Moon,影片聚焦上世纪七十年代澳洲知名女歌手海伦·瑞迪,片名出自瑞迪演唱的同名歌曲,该歌曲曾被选为当时女权运动的主题曲。蒂尔达·格哈姆-哈维饰瑞迪,埃文·彼得斯饰瑞迪的丈夫杰夫·沃尔德,也是她的经纪人。影片将在澳大利亚开机。


该资源信息参数
  • Video
  • ID                                       : 1
  • Format                                   : AVC
  • Format/Info                              : Advanced Video Codec
  • Format profile                           : High@L4
  • Format settings                          : CABAC / 4 Ref Frames
  • Format settings, CABAC                   : Yes
  • Format settings, Reference frames        : 4 frames
  • Codec ID                                 : V_MPEG4/ISO/AVC
  • Duration                                 : 1 h 56 min
  • Bit rate mode                            : Constant
  • Bit rate                                 : 7 808 kb/s
  • Nominal bit rate                         : 10 000 kb/s
  • Width                                    : 1 920 pixels
  • Height                                   : 1 040 pixels
  • Display aspect ratio                     : 1.85:1
  • Frame rate mode                          : Constant
  • Frame rate                               : 23.976 (24000/1001) FPS
  • Color space                              : YUV
  • Chroma subsampling                       : 4:2:0
  • Bit depth                                : 8 bits
  • Scan type                                : Progressive
  • Bits/(Pixel*Frame)                       : 0.163
  • Stream size                              : 6.36 GiB (92%)
  • Default                                  : Yes
  • Forced                                   : No
  • Color range                              : Limited
  • Color primaries                          : BT.709
  • Transfer characteristics                 : BT.709
  • Matrix coefficients                      : BT.709
  • Audio
  • ID                                       : 2
  • Format                                   : E-AC-3
  • Format/Info                              : Enhanced AC-3
  • Commercial name                          : Dolby Digital Plus
  • Codec ID                                 : A_EAC3
  • Duration                                 : 1 h 56 min
  • Bit rate mode                            : Constant
  • Bit rate                                 : 640 kb/s
  • Channel(s)                               : 6 channels
  • Channel layout                           : L R C LFE Ls Rs
  • Sampling rate                            : 48.0 kHz
  • Frame rate                               : 31.250 FPS (1536 SPF)
  • Compression mode                         : Lossy
  • Stream size                              : 534 MiB (8%)
  • Language                                 : English
  • Service kind                             : Complete Main
  • Default                                  : Yes
  • Forced                                   : No
  • Text #1
  • ID                                       : 3
  • Format                                   : UTF-8
  • Codec ID                                 : S_TEXT/UTF8
  • Codec ID/Info                            : UTF-8 Plain Text
  • Duration                                 : 1 h 52 min
  • Bit rate                                 : 56 b/s
  • Count of elements                        : 1529
  • Stream size                              : 46.9 KiB (0%)
  • Language                                 : English
  • Default                                  : No
  • Forced                                   : No
  • Text #2
  • ID                                       : 4
  • Format                                   : UTF-8
  • Codec ID                                 : S_TEXT/UTF8
  • Codec ID/Info                            : UTF-8 Plain Text
  • Duration                                 : 1 h 52 min
  • Bit rate                                 : 69 b/s
  • Count of elements                        : 1749
  • Stream size                              : 57.0 KiB (0%)
  • Title                                    : SDH
  • Language                                 : English
  • Default                                  : No
  • Forced                                   : No

复制代码



20190801120031.jpg

20190801120031.jpg

20190801120031.jpg


4K321提示您  点击下方附件名称  马上开始下载

我是女人/铿锵玫瑰 I.Am.Woman.2019.1080p.AMZN.WEBRip.DDP5.1.x264-TEPES 6.88GB

I.Am.Woman.2019.1080p.AMZN.WEBRip.DDP5.1.x264-TEPES.torrent ( 34.94 KB )




               
回复

使用道具 举报

全部回复0 显示全部楼层

声明:您在社区发表的所有信息仅代表用户个人观点,与本网站立场无关,希望各位烧友理性发言,不发表违法国家法律禁止的话题。

您需要登录后才可以回帖 登录 | 立即注册

本版积分规则

联系客服 关注微信 下载APP 返回顶部 返回列表