开启左侧

[剧情片] 女人的碎片/女人碎片 Pieces.of.a.Woman.2020.1080p.WEBRip.x264-RARBG 2.44GB

蓝鸟 发表于 2021-1-12 14:07:10 | 显示全部楼层 |阅读模式
20190801120031.jpg


译  名 女人的碎片 / 女人碎片(台) / 心碎的女人(港)
片  名 Pieces of a Woman
年  代 2020
产  地 加拿大 / 匈牙利 / 美国
类  别 剧情
语  言 英语
上映日期 2020-09-05(威尼斯电影节) / 2021-01-07(美国网络)
IMDb评分  5.6/10 from 610 users
IMDb链接  https://www.imdb.com/title/tt11161474
豆瓣评分 8.0/10 from 104 users
豆瓣链接 https://movie.douban.com/subject/34869387/
片  长 128分钟
导  演 凯内尔·穆德卢佐 Kornél Mundruczó
编  剧 卡塔·韦伯 Kata Wéber
主  演 凡妮莎·柯比 Vanessa Kirby
       希亚·拉博夫 Shia LaBeouf
       艾伦·伯斯汀 Ellen Burstyn
       埃莱扎·施莱辛格 Iliza Shlesinger
       本·萨弗迪 Ben Safdie
       莎拉·斯努克 Sarah Snook
       莫莉·帕克 Molly Parker
       史蒂文·麦卡锡 Steven McCarthy
       蒂龙·本斯金 Tyrone Benskin
       弗兰克·萧宾 Frank Schorpion
       哈里·斯坦德乔夫斯基 Harry Standjofski
       吉米·费尔斯 Jimmie Fails
       埃里克·戴维斯 Eric Davis
       肖恩·塔克 Sean Tucker
       Domenic Di Rosa
       杜桑恩·杜基齐 Dusan Dukic

标  签 凡妮莎柯比 | 加拿大 | 2020 | 剧情 | 威尼斯 | 希亚·拉博夫 | 莎拉·斯努克 | P-VeniceA入围主竞赛
简  介  
  波士顿的一对夫妇玛莎(凡妮莎·柯比饰)和肖恩(希亚·拉博夫饰)原本将为人父母,然而,由于在家中分娩时发生了令人难以想象的悲剧,两人的生活被彻底改变。于是,玛莎开始了长达一年的漫长旅程,面对丈夫、专横的母亲(艾伦·伯斯汀饰)以及被公众大肆讨伐的助产士(莫莉·帕克饰),她必须学会处理自己的愤怒和悲伤,也必须在法庭上与助产士当面对质。《女人的碎片》由凯内尔·穆德卢佐(《白色上帝》,2014 年“一种关注”单元最佳影片)执导,卡塔·韦伯担任编剧,马丁·斯科塞斯担任监制,是一部感情真挚、炽烈、非凡的故事,讲述了一个女人如何学会与“失去”共存。
获奖情况  
  第77届威尼斯电影节(2020)
  主竞赛单元 金狮奖 (提名) 凯内尔·穆德卢佐
  沃尔皮杯 最佳女演员 凡妮莎·柯比
  第45届多伦多国际电影节(2020)
  最佳加拿大电影(提名) 凯内尔·穆德卢佐


该资源信息参数
  • Video
  • ID                                       : 1
  • Format                                   : AVC
  • Format/Info                              : Advanced Video Codec
  • Format profile                           : High@L4.1
  • Format settings                          : CABAC / 4 Ref Frames
  • Format settings, CABAC                   : Yes
  • Format settings, Reference frames        : 4 frames
  • Codec ID                                 : avc1
  • Codec ID/Info                            : Advanced Video Coding
  • Duration                                 : 2 h 7 min
  • Bit rate                                 : 2 500 kb/s
  • Width                                    : 1 920 pixels
  • Height                                   : 1 036 pixels
  • Display aspect ratio                     : 1.85:1
  • Frame rate mode                          : Constant
  • Frame rate                               : 24.000 FPS
  • Color space                              : YUV
  • Chroma subsampling                       : 4:2:0
  • Bit depth                                : 8 bits
  • Scan type                                : Progressive
  • Bits/(Pixel*Frame)                       : 0.052
  • Stream size                              : 2.23 GiB (92%)
  • Writing library                          : x264 core 152 r2851M ba24899
  • Encoding settings                        : cabac=1 / ref=4 / deblock=1:-1:-1 / analyse=0x3:0x113 / me=umh / subme=9 / psy=1 / psy_rd=1.00:0.15 / mixed_ref=1 / me_range=24 / chroma_me=1 / trellis=2 / 8x8dct=1 / cqm=0 / deadzone=21,11 / fast_pskip=1 / chroma_qp_offset=-3 / threads=16 / lookahead_threads=4 / sliced_threads=0 / nr=0 / decimate=1 / interlaced=0 / bluray_compat=0 / constrained_intra=0 / bframes=3 / b_pyramid=2 / b_adapt=2 / b_bias=0 / direct=3 / weightb=1 / open_gop=0 / weightp=2 / keyint=250 / keyint_min=25 / scenecut=40 / intra_refresh=0 / rc_lookahead=50 / rc=2pass / mbtree=1 / bitrate=2500 / ratetol=1.0 / qcomp=0.60 / qpmin=0 / qpmax=69 / qpstep=4 / cplxblur=20.0 / qblur=0.5 / vbv_maxrate=31250 / vbv_bufsize=31250 / nal_hrd=none / filler=0 / ip_ratio=1.40 / aq=3:1.00
  • Encoded date                             : UTC 2021-01-07 09:50:28
  • Tagged date                              : UTC 2021-01-07 09:50:28
  • Codec configuration box                  : avcC
  • Audio
  • ID                                       : 2
  • Format                                   : AAC LC
  • Format/Info                              : Advanced Audio Codec Low Complexity
  • Codec ID                                 : mp4a-40-2
  • Duration                                 : 2 h 7 min
  • Duration_LastFrame                       : -11 ms
  • Bit rate mode                            : Constant
  • Bit rate                                 : 224 kb/s
  • Channel(s)                               : 6 channels
  • Channel layout                           : C L R Ls Rs LFE
  • Sampling rate                            : 48.0 kHz
  • Frame rate                               : 46.875 FPS (1024 SPF)
  • Compression mode                         : Lossy
  • Stream size                              : 205 MiB (8%)
  • Language                                 : English
  • Default                                  : Yes
  • Alternate group                          : 1
  • Encoded date                             : UTC 2021-01-07 09:50:28
  • Tagged date                              : UTC 2021-01-07 09:50:28

复制代码



20190801120031.jpg

20190801120031.jpg

20190801120031.jpg


4K321提示您  点击下方附件名称  马上开始下载

女人的碎片/女人碎片 Pieces.of.a.Woman.2020.1080p.WEBRip.x264-RARBG 2.44GB

Pieces.of.a.Woman.2020.1080p.WEBRip.x264-RARBG.torrent ( 26.37 KB )




               
回复

使用道具 举报

全部回复0 显示全部楼层

声明:您在社区发表的所有信息仅代表用户个人观点,与本网站立场无关,希望各位烧友理性发言,不发表违法国家法律禁止的话题。

您需要登录后才可以回帖 登录 | 立即注册

本版积分规则

联系客服 关注微信 下载APP 返回顶部 返回列表