开启左侧

[剧情片] 滑稽小子 Funny.Boy.2020.1080p.NF.WEBRip.DDP5.1.x264-NOGRP 3.36GB

蓝鸟 发表于 2021-1-12 14:03:32 | 显示全部楼层 |阅读模式
20190801120031.jpg


译  名 滑稽小子
片  名 Funny Boy
年  代 2020
产  地 加拿大 / 美国
类  别 剧情
语  言 泰米尔语 / 英语
上映日期 2020-12-04(加拿大) / 2020-12-10(美国)
IMDb评分  6.1/10 from 589 users
IMDb链接  https://www.imdb.com/title/tt13345636
豆瓣评分 0/10 from 0 users
豆瓣链接 https://movie.douban.com/subject/35237646/
片  长 109分钟
导  演 迪帕·梅塔 Deepa Mehta
编  剧 迪帕·梅塔 Deepa Mehta
主  演 阿加·达什 Agam Darshi
       阿里·卡兹米 Ali Kazmi
       希玛·比斯瓦斯 Seema Biswas

标  签 剧情 | 电影 | 2020 | LGBT | 美(加)国电影 | 加拿大電影 | 音 | gay
简  介  
  An adaptation of Shyam Selvadurai"s 1994 novel Funny Boy, the film centres on the coming of age of Arjie Chelvaratnam, a young Tamil boy in Sri Lanka who is coming to terms with his homosexuality against the backdrop of the increased tensions between Tamil and Sinhalese people before the breakout of the Sri Lankan Civil War.
  谷歌为您翻译:
  这部电影改编自Shyam Selvadurai 1994年的小说《有趣的男孩》,电影的重点是斯里兰卡的年轻泰米尔男孩Arjie Chelvaratnam的成年,他在泰米尔人和僧伽罗人之间的紧张关系日益加剧的背景下接受了同性恋斯里兰卡内战的爆发。
  腾讯为您翻译:
  这部电影改编自Shyam·Selvadurai 1994小说“搞笑男孩”,这部电影集中于斯里兰卡泰米尔男孩Arjie·Chelvaratnam的年龄。斯里兰卡内战爆发前泰米尔人和僧伽罗人之间日益紧张的背景下,他正在与同性恋相适应。
  本站为您翻译:
  这部电影改编自悉亚姆·塞瓦德瑞1994年的小说《滑稽男孩》 ,故事围绕着阿尔杰 · 切尔瓦拉特南的成长过程展开,这是一个生活在斯里兰卡的年轻泰米尔男孩,在泰米尔人和僧伽罗人之间的紧张关系加剧的背景下,他逐渐接受了自己的同性恋身份,而这种紧张关系正是在斯里兰卡内战爆发之前发生的。


该资源信息参数
  • Video
  • ID                                       : 1
  • Format                                   : AVC
  • Format/Info                              : Advanced Video Codec
  • Format profile                           : Main@L4
  • Format settings                          : CABAC / 3 Ref Frames
  • Format settings, CABAC                   : Yes
  • Format settings, Reference frames        : 3 frames
  • Codec ID                                 : V_MPEG4/ISO/AVC
  • Duration                                 : 1 h 49 min
  • Bit rate mode                            : Variable
  • Bit rate                                 : 3 761 kb/s
  • Nominal bit rate                         : 4 870 kb/s
  • Maximum bit rate                         : 7 305 kb/s
  • Width                                    : 1 920 pixels
  • Height                                   : 1 080 pixels
  • Display aspect ratio                     : 16:9
  • Frame rate mode                          : Constant
  • Frame rate                               : 24.000 FPS
  • Color space                              : YUV
  • Chroma subsampling                       : 4:2:0
  • Bit depth                                : 8 bits
  • Scan type                                : Progressive
  • Bits/(Pixel*Frame)                       : 0.076
  • Stream size                              : 2.87 GiB (85%)
  • Writing library                          : x264 core 148 r2722 1b0121b
  • Encoding settings                        : cabac=1 / ref=3 / deblock=1:0:0 / analyse=0x1:0x111 / me=umh / subme=10 / psy=1 / psy_rd=1.00:0.00 / mixed_ref=1 / me_range=24 / chroma_me=1 / trellis=2 / 8x8dct=0 / cqm=0 / deadzone=21,11 / fast_pskip=1 / chroma_qp_offset=-2 / threads=6 / lookahead_threads=1 / sliced_threads=0 / nr=0 / decimate=1 / interlaced=0 / bluray_compat=0 / stitchable=1 / constrained_intra=0 / bframes=2 / b_pyramid=0 / b_adapt=2 / b_bias=0 / direct=3 / weightb=1 / open_gop=0 / weightp=2 / keyint=250 / keyint_min=24 / scenecut=0 / intra_refresh=0 / rc_lookahead=48 / rc=2pass / mbtree=1 / bitrate=4870 / ratetol=1.0 / qcomp=0.50 / qpmin=6 / qpmax=51 / qpstep=4 / cplxblur=20.0 / qblur=0.5 / vbv_maxrate=7305 / vbv_bufsize=9740 / nal_hrd=vbr / filler=0 / ip_ratio=1.40 / aq=1:1.00
  • Default                                  : Yes
  • Forced                                   : No
  • Audio
  • ID                                       : 2
  • Format                                   : E-AC-3
  • Format/Info                              : Enhanced AC-3
  • Commercial name                          : Dolby Digital Plus
  • Codec ID                                 : A_EAC3
  • Duration                                 : 1 h 49 min
  • Bit rate mode                            : Constant
  • Bit rate                                 : 640 kb/s
  • Channel(s)                               : 6 channels
  • Channel layout                           : L R C LFE Ls Rs
  • Sampling rate                            : 48.0 kHz
  • Frame rate                               : 31.250 FPS (1536 SPF)
  • Compression mode                         : Lossy
  • Stream size                              : 501 MiB (15%)
  • Language                                 : English
  • Service kind                             : Complete Main
  • Default                                  : Yes
  • Forced                                   : No
  • Text
  • ID                                       : 3
  • Format                                   : UTF-8
  • Codec ID                                 : S_TEXT/UTF8
  • Codec ID/Info                            : UTF-8 Plain Text
  • Duration                                 : 1 h 41 min
  • Bit rate                                 : 42 b/s
  • Count of elements                        : 1263
  • Stream size                              : 31.5 KiB (0%)
  • Language                                 : English
  • Default                                  : Yes
  • Forced                                   : No

复制代码



20190801120031.jpg

20190801120031.jpg

20190801120031.jpg


4K321提示您  点击下方附件名称  马上开始下载

滑稽小子 Funny.Boy.2020.1080p.NF.WEBRip.DDP5.1.x264-NOGRP 3.36GB

Funny.Boy.2020.1080p.NF.WEBRip.DDP5.1.x264-NOGRP.torrent ( 34.17 KB )




               
回复

使用道具 举报

全部回复0 显示全部楼层

声明:您在社区发表的所有信息仅代表用户个人观点,与本网站立场无关,希望各位烧友理性发言,不发表违法国家法律禁止的话题。

您需要登录后才可以回帖 登录 | 立即注册

本版积分规则

联系客服 关注微信 下载APP 返回顶部 返回列表