开启左侧

[剧情片] 无用的我看见了天/不中用的我仰望天空 The.Cowards.Who.Looked.to.the.Sky.2012.JAPANESE.1080p.NF.WEBR

蓝鸟 发表于 2021-1-12 13:36:36 | 显示全部楼层 |阅读模式
20190801120031.jpg


译  名 无用的我看见了天 / Cowards Who Looked to the Sky / 不中用的我仰望天空(台)
片  名 ふがいない僕は空を見た
年  代 2012
产  地 日本
类  别 剧情
语  言 日语
上映日期 2012-11-17
IMDb评分  6.9/10 from 136 users
IMDb链接  https://www.imdb.com/title/tt2139903
豆瓣评分 6.4/10 from 553 users
豆瓣链接 https://movie.douban.com/subject/7053706/
片  长 142分钟
导  演 棚田由纪 Yuki Tanada
编  剧 向井康介 K?suke Mukai
主  演 永山绚斗 Kento Nagayama
       田畑智子 Tomoko Tabata
       洼田正孝 Masataka Kubota
       小篠恵奈 Ena Koshino
       三浦贵大 Takahiro Miura
       银粉蝶 Guin Poon Chaw
       原田美枝子 Mieko Harada
       山本政志 Masashi Yamamoto
       田中美晴 Miharu Tanaka
       西田奈津美 Natsumi Nishida
       吉田羊 Y? Yoshida
       山本浩司 Hiroshi Yamamoto
       柴田柚菜 Yuna Shibata

标  签 日本 | 日本电影 | 永山绚斗 | 2012 | 窪田正孝 | 日影 | 田畑智子 | 电影
简  介  
  高中生齐藤卓巳(永山绚斗 饰)的家境优渥,无忧无虑。在参加某动漫展的活动上,他结识了热爱Cosplay的家庭主妇冈本里美(田畑智子 饰),二人的人生由此发生改变。里美婚后多年从未生育,婆婆言语刻薄,不留情面,丈夫又全然不为自己着想,难以依靠。许是这份令人透不过起来的巨大压力,让里美和卓巳发展成一段不伦之恋。她喜欢将彼此打扮成动漫人物,沉浸在短暂而虚幻的快乐中。卓巳一度因同学松永七菜(田中美晴 饰)的原因向里美提出分手,可终究无法忘怀这个这个在他心中留下烙印的女人。他们越缠越深,命运的彼方也愈加黯淡……本片根据女性作家窪美澄的同名小说改编,并荣获2012年日本电影旬报十佳影片第七名。


该资源信息参数
  • Video
  • ID                                       : 1
  • Format                                   : AVC
  • Format/Info                              : Advanced Video Codec
  • Format profile                           : High@L4
  • Format settings                          : CABAC / 4 Ref Frames
  • Format settings, CABAC                   : Yes
  • Format settings, Reference frames        : 4 frames
  • Codec ID                                 : V_MPEG4/ISO/AVC
  • Duration                                 : 2 h 22 min
  • Bit rate mode                            : Variable
  • Bit rate                                 : 5 564 kb/s
  • Maximum bit rate                         : 20.0 Mb/s
  • Width                                    : 1 920 pixels
  • Height                                   : 1 080 pixels
  • Display aspect ratio                     : 16:9
  • Frame rate mode                          : Constant
  • Frame rate                               : 23.976 (24000/1001) FPS
  • Color space                              : YUV
  • Chroma subsampling                       : 4:2:0
  • Bit depth                                : 8 bits
  • Scan type                                : Progressive
  • Bits/(Pixel*Frame)                       : 0.112
  • Stream size                              : 5.52 GiB (90%)
  • Writing library                          : x264 core 148 r2717 0d2410d
  • Encoding settings                        : cabac=1 / ref=4 / deblock=1:0:0 / analyse=0x3:0x111 / me=umh / subme=10 / psy=1 / psy_rd=1.00:0.00 / mixed_ref=1 / me_range=120 / chroma_me=1 / trellis=2 / 8x8dct=1 / cqm=0 / deadzone=21,11 / fast_pskip=1 / chroma_qp_offset=-2 / threads=8 / lookahead_threads=2 / sliced_threads=0 / nr=0 / decimate=1 / interlaced=0 / bluray_compat=0 / stitchable=1 / constrained_intra=0 / bframes=16 / b_pyramid=2 / b_adapt=2 / b_bias=0 / direct=3 / weightb=1 / open_gop=0 / weightp=2 / keyint=240 / keyint_min=121 / scenecut=0 / intra_refresh=0 / rc_lookahead=240 / rc=crf / mbtree=1 / crf=16.0 / qcomp=0.50 / qpmin=6 / qpmax=51 / qpstep=4 / vbv_maxrate=20000 / vbv_bufsize=25000 / crf_max=0.0 / nal_hrd=vbr / filler=0 / ip_ratio=1.40 / aq=1:0.80
  • Default                                  : Yes
  • Forced                                   : No
  • Audio
  • ID                                       : 2
  • Format                                   : E-AC-3
  • Format/Info                              : Enhanced AC-3
  • Commercial name                          : Dolby Digital Plus
  • Codec ID                                 : A_EAC3
  • Duration                                 : 2 h 22 min
  • Bit rate mode                            : Constant
  • Bit rate                                 : 640 kb/s
  • Channel(s)                               : 6 channels
  • Channel layout                           : L R C LFE Ls Rs
  • Sampling rate                            : 48.0 kHz
  • Frame rate                               : 31.250 FPS (1536 SPF)
  • Compression mode                         : Lossy
  • Stream size                              : 650 MiB (10%)
  • Title                                    : Japanese
  • Language                                 : Japanese
  • Service kind                             : Complete Main
  • Default                                  : Yes
  • Forced                                   : No
  • Encoded date                             : UTC 2020-04-23 07:54:04
  • Text #1
  • ID                                       : 3
  • Format                                   : UTF-8
  • Codec ID                                 : S_TEXT/UTF8
  • Codec ID/Info                            : UTF-8 Plain Text
  • Duration                                 : 2 h 15 min
  • Bit rate                                 : 26 b/s
  • Count of elements                        : 1295
  • Stream size                              : 26.8 KiB (0%)
  • Language                                 : English
  • Default                                  : No
  • Forced                                   : No
  • Text #2
  • ID                                       : 4
  • Format                                   : UTF-8
  • Codec ID                                 : S_TEXT/UTF8
  • Codec ID/Info                            : UTF-8 Plain Text
  • Duration                                 : 2 h 20 min
  • Bit rate                                 : 27 b/s
  • Count of elements                        : 1302
  • Stream size                              : 28.4 KiB (0%)
  • Language                                 : Indonesian
  • Default                                  : No
  • Forced                                   : No
  • Text #3
  • ID                                       : 5
  • Format                                   : UTF-8
  • Codec ID                                 : S_TEXT/UTF8
  • Codec ID/Info                            : UTF-8 Plain Text
  • Duration                                 : 2 h 21 min
  • Bit rate                                 : 57 b/s
  • Count of elements                        : 1669
  • Stream size                              : 59.2 KiB (0%)
  • Title                                    : SDH
  • Language                                 : Japanese
  • Default                                  : No
  • Forced                                   : No
  • Text #4
  • ID                                       : 6
  • Format                                   : UTF-8
  • Codec ID                                 : S_TEXT/UTF8
  • Codec ID/Info                            : UTF-8 Plain Text
  • Duration                                 : 2 h 20 min
  • Bit rate                                 : 65 b/s
  • Count of elements                        : 1303
  • Stream size                              : 66.8 KiB (0%)
  • Language                                 : Thai
  • Default                                  : No
  • Forced                                   : No
  • Text #5
  • ID                                       : 7
  • Format                                   : UTF-8
  • Codec ID                                 : S_TEXT/UTF8
  • Codec ID/Info                            : UTF-8 Plain Text
  • Duration                                 : 2 h 20 min
  • Bit rate                                 : 34 b/s
  • Count of elements                        : 1302
  • Stream size                              : 35.3 KiB (0%)
  • Language                                 : Vietnamese
  • Default                                  : No
  • Forced                                   : No
  • Text #6
  • ID                                       : 8
  • Format                                   : UTF-8
  • Codec ID                                 : S_TEXT/UTF8
  • Codec ID/Info                            : UTF-8 Plain Text
  • Duration                                 : 2 h 20 min
  • Bit rate                                 : 25 b/s
  • Count of elements                        : 1294
  • Stream size                              : 25.9 KiB (0%)
  • Title                                    : Simplified
  • Language                                 : Chinese
  • Default                                  : No
  • Forced                                   : No
  • Text #7
  • ID                                       : 9
  • Format                                   : UTF-8
  • Codec ID                                 : S_TEXT/UTF8
  • Codec ID/Info                            : UTF-8 Plain Text
  • Duration                                 : 2 h 20 min
  • Bit rate                                 : 24 b/s
  • Count of elements                        : 1279
  • Stream size                              : 25.3 KiB (0%)
  • Title                                    : Traditional
  • Language                                 : Chinese
  • Default                                  : No
  • Forced                                   : No

复制代码



20190801120031.jpg

20190801120031.jpg

20190801120031.jpg


4K321提示您  点击下方附件名称  马上开始下载

无用的我看见了天/不中用的我仰望天空 The.Cowards.Who.Looked.to.the.Sky.2012.JAPANESE.1080p.NF.WEBRip.DDP5.1.x264-DoA 6.16GB

The.Cowards.Who.Looked.to.the.Sky.2012.JAPANESE.1080p.NF.WEBRip.DDP5.1.x264-DoA.torrent ( 31.37 KB )




               
回复

使用道具 举报

全部回复0 显示全部楼层

声明:您在社区发表的所有信息仅代表用户个人观点,与本网站立场无关,希望各位烧友理性发言,不发表违法国家法律禁止的话题。

您需要登录后才可以回帖 登录 | 立即注册

本版积分规则

联系客服 关注微信 下载APP 返回顶部 返回列表