开启左侧

[恐怖片] 塞勒姆之家 House.of.Salem.2016.1080p.AMZN.WEBRip.DDP5.1.x264-NTG 3.34GB

蓝鸟 发表于 2021-1-12 12:40:34 | 显示全部楼层 |阅读模式
20190801120031.jpg


译  名 塞勒姆之家
片  名 House of Salem
年  代 2016
产  地 美国
类  别 恐怖
语  言 英语
上映日期 2016-08-26(英国)
IMDb评分  4.4/10 from 171 users
IMDb链接  https://www.imdb.com/title/tt5122092
豆瓣评分 0/10 from 0 users
豆瓣链接 https://movie.douban.com/subject/28451456/
片  长 100分钟
主  演 弗林·艾伦 Flynn Allen
       尤汉娜·法瑞尔-奈特 Yohanna Farrell-Knight

标  签 美国电影 | 想看去这 | 惊悚 | 恐怖
简  介  
  A group of kidnappers become a child"s unlikely protectors after discovering they have unwittingly been set up to take part in a satanic ritual. As they begin to uncover the truth of the house they find themselves trapped, they must battle demonic forces and uncover a legacy of over a hundred years of murder in the name of the Devil.
  谷歌为您翻译:
  一群绑架者在发现他们不知不觉地参加了撒旦的仪式后,就变成了孩子不太可能的保护者。当他们开始发现自己被困住的房屋的真相时,他们必须与恶魔部队作战,并揭露以恶魔的名义谋杀一百多年的遗产。
  腾讯为您翻译:
  一群绑匪发现他们无意中成立了一个撒旦仪式之后,成为了孩子们不可能保护的保护者。当他们开始发现房子的真相时,他们发现自己被困住了,他们必须与恶魔力量作战,并以恶魔的名义揭开一百多年的谋杀的遗产。
  本站为您翻译:
  一群绑架者在发现他们被设计参加一个撒旦仪式后,成为了一个孩子不太可能的保护者。当他们开始揭示真相的房子,他们发现自己陷入,他们必须战斗恶魔的力量和发现一个遗产超过一百年的谋杀以魔鬼的名义。


该资源信息参数
  • Video
  • ID                                       : 1
  • Format                                   : AVC
  • Format/Info                              : Advanced Video Codec
  • Format profile                           : High@L4
  • Format settings                          : CABAC / 4 Ref Frames
  • Format settings, CABAC                   : Yes
  • Format settings, Reference frames        : 4 frames
  • Codec ID                                 : V_MPEG4/ISO/AVC
  • Duration                                 : 1 h 35 min
  • Bit rate mode                            : Variable
  • Bit rate                                 : 4 364 kb/s
  • Maximum bit rate                         : 15.0 Mb/s
  • Width                                    : 1 920 pixels
  • Height                                   : 816 pixels
  • Display aspect ratio                     : 2.35:1
  • Frame rate mode                          : Constant
  • Frame rate                               : 25.000 FPS
  • Color space                              : YUV
  • Chroma subsampling                       : 4:2:0
  • Bit depth                                : 8 bits
  • Scan type                                : Progressive
  • Bits/(Pixel*Frame)                       : 0.111
  • Stream size                              : 2.91 GiB (87%)
  • Default                                  : Yes
  • Forced                                   : No
  • Color range                              : Limited
  • Color primaries                          : BT.709
  • Transfer characteristics                 : BT.709
  • Matrix coefficients                      : BT.709
  • Audio
  • ID                                       : 2
  • Format                                   : E-AC-3
  • Format/Info                              : Enhanced AC-3
  • Commercial name                          : Dolby Digital Plus
  • Codec ID                                 : A_EAC3
  • Duration                                 : 1 h 35 min
  • Bit rate mode                            : Constant
  • Bit rate                                 : 640 kb/s
  • Channel(s)                               : 6 channels
  • Channel layout                           : L R C LFE Ls Rs
  • Sampling rate                            : 48.0 kHz
  • Frame rate                               : 31.250 FPS (1536 SPF)
  • Compression mode                         : Lossy
  • Stream size                              : 437 MiB (13%)
  • Language                                 : English
  • Service kind                             : Complete Main
  • Default                                  : Yes
  • Forced                                   : No
  • Text #1
  • ID                                       : 3
  • Format                                   : UTF-8
  • Codec ID                                 : S_TEXT/UTF8
  • Codec ID/Info                            : UTF-8 Plain Text
  • Duration                                 : 1 h 33 min
  • Bit rate                                 : 50 b/s
  • Count of elements                        : 1130
  • Stream size                              : 34.3 KiB (0%)
  • Language                                 : English
  • Default                                  : No
  • Forced                                   : No
  • Text #2
  • ID                                       : 4
  • Format                                   : UTF-8
  • Codec ID                                 : S_TEXT/UTF8
  • Codec ID/Info                            : UTF-8 Plain Text
  • Duration                                 : 1 h 35 min
  • Bit rate                                 : 55 b/s
  • Count of elements                        : 1344
  • Stream size                              : 38.5 KiB (0%)
  • Title                                    : SDH
  • Language                                 : English
  • Default                                  : No
  • Forced                                   : No

复制代码



20190801120031.jpg

20190801120031.jpg

20190801120031.jpg


4K321提示您  点击下方附件名称  马上开始下载

塞勒姆之家 House.of.Salem.2016.1080p.AMZN.WEBRip.DDP5.1.x264-NTG 3.34GB

House.of.Salem.2016.1080p.AMZN.WEBRip.DDP5.1.x264-NTG.torrent ( 33.93 KB )




               
回复

使用道具 举报

全部回复0 显示全部楼层

声明:您在社区发表的所有信息仅代表用户个人观点,与本网站立场无关,希望各位烧友理性发言,不发表违法国家法律禁止的话题。

您需要登录后才可以回帖 登录 | 立即注册

本版积分规则

联系客服 关注微信 下载APP 返回顶部 返回列表