开启左侧

[剧情片] 幸运的圣诞节 Lucky.Christmas.2011.1080p.WEBRip.AAC2.0.x264-NOGRP 4.65GB

蓝鸟 发表于 2021-1-12 12:36:49 | 显示全部楼层 |阅读模式
20190801120031.jpg


译  名 幸运的圣诞节
片  名 Lucky Christmas
年  代 2011
产  地 美国
语  言 英语
IMDb评分  5.6/10 from 1053 users
IMDb链接  https://www.imdb.com/title/tt2039366
豆瓣评分 0/10 from 0 users
豆瓣链接 https://movie.douban.com/subject/26688482/
主  演 朱莉娅·阿尔科斯 Julia Arkos
       萨曼莎·肯德里克 Samantha Kendrick

简  介  
  暂无相关剧情介绍


该资源信息参数
  • Video
  • ID                                       : 1
  • Format                                   : AVC
  • Format/Info                              : Advanced Video Codec
  • Format profile                           : High@L4.1
  • Format settings                          : CABAC / 3 Ref Frames
  • Format settings, CABAC                   : Yes
  • Format settings, Reference frames        : 3 frames
  • Codec ID                                 : V_MPEG4/ISO/AVC
  • Duration                                 : 1 h 24 min
  • Bit rate mode                            : Constant
  • Bit rate                                 : 8 000 kb/s
  • Width                                    : 1 920 pixels
  • Height                                   : 1 080 pixels
  • Display aspect ratio                     : 16:9
  • Frame rate mode                          : Constant
  • Frame rate                               : 25.000 FPS
  • Color space                              : YUV
  • Chroma subsampling                       : 4:2:0
  • Bit depth                                : 8 bits
  • Scan type                                : Progressive
  • Bits/(Pixel*Frame)                       : 0.154
  • Stream size                              : 4.57 GiB (98%)
  • Writing library                          : x264 core 148
  • Encoding settings                        : cabac=1 / ref=3 / deblock=1:0:0 / analyse=0x3:0x113 / me=hex / subme=4 / psy=0 / mixed_ref=0 / me_range=16 / chroma_me=1 / trellis=1 / 8x8dct=1 / cqm=0 / deadzone=21,11 / fast_pskip=1 / chroma_qp_offset=0 / threads=14 / lookahead_threads=3 / sliced_threads=0 / nr=0 / decimate=1 / interlaced=0 / paff=0 / bluray_compat=0 / constrained_intra=0 / bframes=3 / b_pyramid=0 / b_adapt=1 / b_bias=0 / direct=1 / weightb=1 / open_gop=0 / weightp=1 / keyint=250 / keyint_min=25 / scenecut=0 / intra_refresh=0 / rc_lookahead=40 / rc=cbr / mbtree=1 / bitrate=8000 / ratetol=1.0 / qcomp=0.60 / qpmin=0 / qpmax=69 / qpstep=4 / vbv_maxrate=8000 / vbv_bufsize=8000 / nal_hrd=cbr / filler=1 / ip_ratio=1.40 / aq=1:0.00
  • Default                                  : Yes
  • Forced                                   : No
  • Color range                              : Limited
  • Color primaries                          : BT.709
  • Transfer characteristics                 : BT.709
  • Matrix coefficients                      : BT.709
  • Audio
  • ID                                       : 2
  • Format                                   : AAC LC
  • Format/Info                              : Advanced Audio Codec Low Complexity
  • Codec ID                                 : A_AAC-2
  • Duration                                 : 1 h 24 min
  • Bit rate                                 : 128 kb/s
  • Channel(s)                               : 2 channels
  • Channel layout                           : L R
  • Sampling rate                            : 48.0 kHz
  • Frame rate                               : 46.875 FPS (1024 SPF)
  • Compression mode                         : Lossy
  • Stream size                              : 77.8 MiB (2%)
  • Language                                 : English
  • Default                                  : Yes
  • Forced                                   : No

复制代码



20190801120031.jpg

20190801120031.jpg

20190801120031.jpg


4K321提示您  点击下方附件名称  马上开始下载

幸运的圣诞节 Lucky.Christmas.2011.1080p.WEBRip.AAC2.0.x264-NOGRP 4.65GB

Lucky.Christmas.2011.1080p.WEBRip.AAC2.0.x264-NOGRP.torrent ( 46.97 KB )




               
回复

使用道具 举报

全部回复0 显示全部楼层

声明:您在社区发表的所有信息仅代表用户个人观点,与本网站立场无关,希望各位烧友理性发言,不发表违法国家法律禁止的话题。

您需要登录后才可以回帖 登录 | 立即注册

本版积分规则

联系客服 关注微信 下载APP 返回顶部 返回列表