开启左侧

[动作片] 赤拳出击/空拳出击 Bare.Knuckles.1977.1080p.AMZN.WEBRip.DDP2.0.x264-KHN 9.37GB

蓝鸟 发表于 2021-1-12 12:35:34 | 显示全部楼层 |阅读模式



译  名 赤拳出击 / 空拳出击
片  名 Bare Knuckles
年  代 1977
产  地 美国
类  别 动作 / 冒险
语  言 英语
上映日期 1977
IMDb评分  5.5/10 from 144 users
IMDb链接  https://www.imdb.com/title/tt0075727
豆瓣评分 0/10 from 0 users
豆瓣链接 https://movie.douban.com/subject/5053193/
片  长 90 分钟
导  演 Don Edmonds
编  剧 Don Edmonds
主  演 Robert Viharo
       谢里·杰克逊 Sherry Jackson
       Michael Heit
       葛洛瑞亚·亨德利 Gloria Hendry
       Karen Kondazian
       乔治·“巴克”·弗劳尔 George "Buck" Flower
       Skip E. Lowe
       Richard Kennedy
       Valerie Rae Clark
        Patrick M. Wright

标  签 Don_Edmonds
简  介  
  暂无相关剧情介绍


该资源信息参数
  • Video
  • ID                                       : 1
  • Format                                   : AVC
  • Format/Info                              : Advanced Video Codec
  • Format profile                           : High@L4
  • Format settings                          : CABAC / 4 Ref Frames
  • Format settings, CABAC                   : Yes
  • Format settings, Reference frames        : 4 frames
  • Codec ID                                 : V_MPEG4/ISO/AVC
  • Duration                                 : 1 h 30 min
  • Bit rate                                 : 14.5 Mb/s
  • Width                                    : 1 440 pixels
  • Height                                   : 1 080 pixels
  • Display aspect ratio                     : 4:3
  • Frame rate mode                          : Constant
  • Frame rate                               : 23.976 (24000/1001) FPS
  • Color space                              : YUV
  • Chroma subsampling                       : 4:2:0
  • Bit depth                                : 8 bits
  • Scan type                                : Progressive
  • Bits/(Pixel*Frame)                       : 0.390
  • Stream size                              : 9.22 GiB (98%)
  • Language                                 : English
  • Default                                  : Yes
  • Forced                                   : No
  • Color range                              : Limited
  • Color primaries                          : BT.709
  • Transfer characteristics                 : BT.709
  • Matrix coefficients                      : BT.709
  • Audio
  • ID                                       : 2
  • Format                                   : E-AC-3
  • Format/Info                              : Enhanced AC-3
  • Commercial name                          : Dolby Digital Plus
  • Codec ID                                 : A_EAC3
  • Duration                                 : 1 h 30 min
  • Bit rate mode                            : Constant
  • Bit rate                                 : 224 kb/s
  • Channel(s)                               : 2 channels
  • Channel layout                           : L R
  • Sampling rate                            : 48.0 kHz
  • Frame rate                               : 31.250 FPS (1536 SPF)
  • Compression mode                         : Lossy
  • Stream size                              : 146 MiB (2%)
  • Language                                 : English
  • Service kind                             : Complete Main
  • Default                                  : Yes
  • Forced                                   : No
  • Text
  • ID                                       : 3
  • Format                                   : UTF-8
  • Codec ID                                 : S_TEXT/UTF8
  • Codec ID/Info                            : UTF-8 Plain Text
  • Duration                                 : 1 h 29 min
  • Bit rate                                 : 30 b/s
  • Count of elements                        : 695
  • Stream size                              : 20.3 KiB (0%)
  • Title                                    : SDH
  • Language                                 : English
  • Default                                  : No
  • Forced                                   : No

复制代码










4K321提示您  点击下方附件名称  马上开始下载

赤拳出击/空拳出击 Bare.Knuckles.1977.1080p.AMZN.WEBRip.DDP2.0.x264-KHN 9.37GB

Bare.Knuckles.1977.1080p.AMZN.WEBRip.DDP2.0.x264-KHN.torrent ( 47.38 KB )




               
回复

使用道具 举报

全部回复0 显示全部楼层

声明:您在社区发表的所有信息仅代表用户个人观点,与本网站立场无关,希望各位烧友理性发言,不发表违法国家法律禁止的话题。

您需要登录后才可以回帖 登录 | 立即注册

本版积分规则

联系客服 关注微信 下载APP 返回顶部 返回列表