开启左侧

[剧情片] 滑坡/下坡 Falling.Uphill.2012.1080p.AMZN.WEBRip.DDP2.0.x264-MEAKES 5.66GB

蓝鸟 发表于 2021-1-7 18:20:35 | 显示全部楼层 |阅读模式
20190801120031.jpg


译  名 滑坡 / 下坡 / 坡道滑落
片  名 Falling Uphill
年  代 2012
产  地 美国
类  别 剧情 / 喜剧 / 爱情
语  言 英语
上映日期 2012-05-01(美国)
IMDb评分  4.9/10 from 177 users
IMDb链接  https://www.imdb.com/title/tt1845796
豆瓣评分 0/10 from 0 users
豆瓣链接 https://movie.douban.com/subject/24847756/
主  演 杰西卡佩斯 Jessiqa Pace
       杰克·麦吉 Jack McGee


简  介  

  Robert asks Jenny, a girl he found on Craigslist, to be his new roommate. Now after a year of living together, he finds himself falling in love with her, but his ability to keep afloat in San Francisco is coming to an end. With a lame job and not enough income, he has no choice but to move back with his parents in Rochester, NY. With only three days until his flight home, Robert struggles to tell Jenny his true feelings and to determine what direction his life is headed.

  谷歌为您翻译:
  罗伯特要求詹妮(他在Craigslist上找到的一个女孩)是他的新室友。现在,在在一起生活了一年之后,他发现自己爱上了她,但是他在旧金山继续生活的能力即将终结。由于工作me脚,收入不足,他别无选择,只能和父母回到纽约州罗切斯特。罗伯特(Robert)离家只有三天,他努力地告诉珍妮(Jenny)他的真实感受,并确定他的生活走向何方。

  腾讯为您翻译:
  。现在同居一年后,他发现自己爱上了她,但他在旧金山保持漂浮能力的能力即将结束。。他只有三天才回家,罗伯特挣扎着告诉珍妮他的真实感受,并决定他的人生方向。

  本站为您翻译:
  罗伯特请他在克雷格列表网站上找到的女孩珍妮做他的新室友。现在,在一起生活了一年之后,他发现自己爱上了她,但是他在旧金山保持漂浮的能力即将结束。由于工作差劲,收入又不够,他别无选择,只能搬回纽约州罗切斯特市和父母一起住。离回家只有三天了,罗伯特挣扎着告诉珍妮他的真实感受,并决定他的人生走向何方。




该资源信息参数
  • Video
  • ID                                       : 1
  • Format                                   : AVC
  • Format/Info                              : Advanced Video Codec
  • Format profile                           : High@L4
  • Format settings                          : CABAC / 4 Ref Frames
  • Format settings, CABAC                   : Yes
  • Format settings, Reference frames        : 4 frames
  • Codec ID                                 : V_MPEG4/ISO/AVC
  • Duration                                 : 1 h 24 min
  • Bit rate mode                            : Constant
  • Bit rate                                 : 9 393 kb/s
  • Nominal bit rate                         : 10 000 kb/s
  • Width                                    : 1 920 pixels
  • Height                                   : 1 080 pixels
  • Display aspect ratio                     : 16:9
  • Frame rate mode                          : Constant
  • Frame rate                               : 23.976 (24000/1001/1122) FPS
  • Color space                              : YUV
  • Chroma subsampling                       : 4:2:0
  • Bit depth                                : 8 bits
  • Scan type                                : Progressive
  • Bits/(Pixel*Frame)                       : 0.189
  • Stream size                              : 5.53 GiB (98%)
  • Default                                  : Yes
  • Forced                                   : No
  • Color range                              : Limited
  • Color primaries                          : BT.709
  • Transfer characteristics                 : BT.709
  • Matrix coefficients                      : BT.709
  • Audio
  • ID                                       : 2
  • Format                                   : E-AC-3
  • Format/Info                              : Enhanced AC-3
  • Commercial name                          : Dolby Digital Plus
  • Codec ID                                 : A_EAC3
  • Duration                                 : 1 h 24 min
  • Bit rate mode                            : Constant
  • Bit rate                                 : 224 kb/s
  • Channel(s)                               : 2 channels
  • Channel layout                           : L R
  • Sampling rate                            : 48.0 kHz
  • Frame rate                               : 31.250 FPS (1536 SPF)
  • Compression mode                         : Lossy
  • Stream size                              : 135 MiB (2%)
  • Language                                 : English
  • Service kind                             : Complete Main
  • Default                                  : Yes
  • Forced                                   : No
  • Text
  • ID                                       : 3
  • Format                                   : UTF-8
  • Codec ID                                 : S_TEXT/UTF8
  • Codec ID/Info                            : UTF-8 Plain Text
  • Duration                                 : 1 h 22 min
  • Bit rate                                 : 86 b/s
  • Count of elements                        : 1910
  • Stream size                              : 52.2 KiB (0%)
  • Language                                 : English
  • Default                                  : No
  • Forced                                   : No

复制代码


20190801120031.jpg


20190801120031.jpg


20190801120031.jpg


4K321提示您  点击下方附件名称  马上开始下载

滑坡/下坡 Falling.Uphill.2012.1080p.AMZN.WEBRip.DDP2.0.x264-MEAKES 5.66GB

Falling.Uphill.2012.1080p.AMZN.WEBRip.DDP2.0.x264-MEAKES.torrent ( 28.83 KB )




               
回复

使用道具 举报

全部回复0 显示全部楼层

声明:您在社区发表的所有信息仅代表用户个人观点,与本网站立场无关,希望各位烧友理性发言,不发表违法国家法律禁止的话题。

您需要登录后才可以回帖 登录 | 立即注册

本版积分规则

联系客服 关注微信 下载APP 返回顶部 返回列表