开启左侧

[剧情片] 追求坎迪丽萨.赖斯 Courting.Condi.2008.1080p.WEBRip.x264-RARBG 2.05GB

蓝鸟 发表于 2021-1-7 18:09:35 | 显示全部楼层 |阅读模式
20190801120031.jpg


译  名 追求坎迪丽萨.赖斯
片  名 courting condi
年  代 2008
产  地 美国
语  言 英语
IMDb评分  7.2/10 from 35 users
IMDb链接  https://www.imdb.com/title/tt1202230
豆瓣评分 0/10 from 0 users
豆瓣链接 https://movie.douban.com/subject/3573172/
导  演 Sebastian Doggart
编  剧 Sebastian Doggart
主  演 戴文·雷特瑞 Devin Ratray
       Sebastian Doggart
       卡罗尔·康纳斯 Carol Connors
       艾德里安·格尼尔 Adrian Grenier
       吉姆·诺顿 Jim Norton
        Peter Ratray
       弗兰克·伦茨 Frank Luntz


标  签 美国

简  介  

  Devin阅人无数,却发现了他人生中的挚爱——美国前国务卿赖斯。他每年送给赖斯一份自己精心准备的生日礼物。终于,他决定向自己的梦中情人求婚。不顾家人的朋友,他在朋友兼导演Sebastian的帮助下上路,一路上寻找赖斯的足迹。儿时同伴、学校老师、斯坦福同事、曾经的恋人……Devin发现一个不曾遭遇的赖斯。



该资源信息参数
  • Video
  • ID                                       : 1
  • Format                                   : AVC
  • Format/Info                              : Advanced Video Codec
  • Format profile                           : High@L4.1
  • Format settings                          : CABAC / 4 Ref Frames
  • Format settings, CABAC                   : Yes
  • Format settings, Reference frames        : 4 frames
  • Codec ID                                 : avc1
  • Codec ID/Info                            : Advanced Video Coding
  • Duration                                 : 1 h 47 min
  • Bit rate                                 : 2 500 kb/s
  • Width                                    : 1 920 pixels
  • Height                                   : 1 080 pixels
  • Display aspect ratio                     : 16:9
  • Frame rate mode                          : Constant
  • Frame rate                               : 29.970 (29970/1000/45778) FPS
  • Color space                              : YUV
  • Chroma subsampling                       : 4:2:0
  • Bit depth                                : 8 bits
  • Scan type                                : Progressive
  • Bits/(Pixel*Frame)                       : 0.040
  • Stream size                              : 1.88 GiB (91%)
  • Writing library                          : x264 core 152 r2851M ba24899
  • Encoding settings                        : cabac=1 / ref=4 / deblock=1:-1:-1 / analyse=0x3:0x113 / me=umh / subme=9 / psy=1 / psy_rd=1.00:0.15 / mixed_ref=1 / me_range=24 / chroma_me=1 / trellis=2 / 8x8dct=1 / cqm=0 / deadzone=21,11 / fast_pskip=1 / chroma_qp_offset=-3 / threads=16 / lookahead_threads=4 / sliced_threads=0 / nr=0 / decimate=1 / interlaced=0 / NDU3Nzg= / bluray_compat=0 / constrained_intra=0 / bframes=3 / b_pyramid=2 / b_adapt=2 / b_bias=0 / direct=3 / weightb=1 / open_gop=0 / weightp=2 / keyint=250 / keyint_min=25 / scenecut=40 / intra_refresh=0 / rc_lookahead=50 / rc=2pass / mbtree=1 / bitrate=2500 / ratetol=1.0 / qcomp=0.60 / qpmin=0 / qpmax=69 / qpstep=4 / cplxblur=20.0 / qblur=0.5 / vbv_maxrate=31250 / vbv_bufsize=31250 / nal_hrd=none / filler=0 / NDU3Nzg=feCb3SYgnbojFoo / ip_ratio=1.40 / aq=3:1.00
  • Encoded date                             : UTC 2020-12-23 17:56:10
  • Tagged date                              : UTC 2020-12-23 17:56:10
  • Codec configuration box                  : avcC
  • Audio
  • ID                                       : 2
  • Format                                   : AAC LC
  • Format/Info                              : Advanced Audio Codec Low Complexity
  • Codec ID                                 : mp4a-40-2
  • Duration                                 : 1 h 47 min
  • Bit rate mode                            : Constant
  • Bit rate                                 : 224 kb/s
  • Channel(s)                               : 2 channels
  • Channel layout                           : L R
  • Sampling rate                            : 48.0 kHz
  • Frame rate                               : 46.875 FPS (1024 SPF)
  • Compression mode                         : Lossy
  • Stream size                              : 172 MiB (8%)
  • Language                                 : English
  • Default                                  : Yes
  • Alternate group                          : 1
  • Encoded date                             : UTC 2020-12-23 17:56:10
  • Tagged date                              : UTC 2020-12-23 17:56:10

复制代码


20190801120031.jpg


20190801120031.jpg


20190801120031.jpg


4K321提示您  点击下方附件名称  马上开始下载

追求坎迪丽萨.赖斯 Courting.Condi.2008.1080p.WEBRip.x264-RARBG 2.05GB

Courting.Condi.2008.1080p.WEBRip.x264-RARBG.torrent ( 21.14 KB )




               
回复

使用道具 举报

全部回复0 显示全部楼层

声明:您在社区发表的所有信息仅代表用户个人观点,与本网站立场无关,希望各位烧友理性发言,不发表违法国家法律禁止的话题。

您需要登录后才可以回帖 登录 | 立即注册

本版积分规则

联系客服 关注微信 下载APP 返回顶部 返回列表