开启左侧

[剧情片] 剑鬼 Sword.Devil.1965.JAPANESE.1080p.AMZN.WEBRip.DDP2.0.x264-SbR 5.76GB

蓝鸟 发表于 2021-1-7 17:58:34 | 显示全部楼层 |阅读模式



译  名 剑鬼 / Ken ki / Sword Devil
片  名 剣鬼
年  代 1965
产  地 日本
语  言 日语
上映日期 1965-10-16
IMDb评分  7.1/10 from 246 users
IMDb链接  https://www.imdb.com/title/tt0200769
豆瓣评分 7.3/10 from 148 users
豆瓣链接 https://movie.douban.com/subject/3227772/
片  长 83 分钟
导  演 三隅研次 Kenji Misumi
编  剧 柴田炼三郎 Renzabur? Shibata
主  演 内田朝雄 Asao Uchida
       小林夕岐子 Yukiko Kobayashi
       香川良介 Ry?suke Kagawa
       木村元 Gen Kimura
       户浦六宏 Rokko Toura
       市川雷藏 Raiz? Ichikawa
       睦五郎 Goro Mutsumi
       佐藤庆 Kei Sat?
       伊达三郎 Saburo Date


标  签 三隅研次 | 日本 | 日本电影 | 市川雷藏 | 武士 | 动作 | 武士电影 | 1960s

简  介  

  德川幕府时代,信州某藩。藩主夫人癫狂而死,临终前将襁褓中的幼子和爱犬托付给心腹侍女阿欣(小村雪子 饰)。三年后,从未与男人接触的阿欣产下一名男婴。藩中一时间议论纷纷,更谣传男婴系阿欣和狗所生,故将男婴命名为斑平。不久,斑平被送往一户普通农家收养。转眼23年过去,斑平(市川雷蔵 饰)已成长为一名俊朗青年。养父去世前嘱托他一定要修得绝世的技能,方能在这磨难重重的世上立足。在此之后,斑平奉召入城担任侍弄花草的工匠,以此为机缘他天生无敌的脚力得到广泛关注,更凭借出众的聪颖习得了剑术大家醍醐弥一郎(内田朝雄 饰)绝学。与此同时,藩中因继承人的问题波澜骤起,善良友善的斑平被迫化身冷血无情的刺客……本片根据柴田錬三郎的同名原著改编。



该资源信息参数
  • Video
  • ID                                       : 1
  • Format                                   : AVC
  • Format/Info                              : Advanced Video Codec
  • Format profile                           : High@L4
  • Format settings                          : CABAC / 4 Ref Frames
  • Format settings, CABAC                   : Yes
  • Format settings, Reference frames        : 4 frames
  • Codec ID                                 : V_MPEG4/ISO/AVC
  • Duration                                 : 1 h 22 min
  • Bit rate mode                            : Constant
  • Bit rate                                 : 10 000 kb/s
  • Width                                    : 1 920 pixels
  • Height                                   : 816 pixels
  • Display aspect ratio                     : 2.35:1
  • Frame rate mode                          : Constant
  • Frame rate                               : 23.976 (24000/1001/45778) FPS
  • Color space                              : YUV
  • Chroma subsampling                       : 4:2:0
  • Bit depth                                : 8 bits
  • Scan type                                : Progressive
  • Bits/(Pixel*Frame)                       : 0.266
  • Stream size                              : 5.63 GiB (98%)
  • Language                                 : Japanese
  • Default                                  : Yes
  • Forced                                   : No
  • Color range                              : Limited
  • Color primaries                          : BT.709
  • Transfer characteristics                 : BT.709
  • Matrix coefficients                      : BT.709
  • Audio
  • ID                                       : 2
  • Format                                   : E-AC-3
  • Format/Info                              : Enhanced AC-3
  • Commercial name                          : Dolby Digital Plus
  • Codec ID                                 : A_EAC3
  • Duration                                 : 1 h 22 min
  • Bit rate mode                            : Constant
  • Bit rate                                 : 224 kb/s
  • Channel(s)                               : 2 channels
  • Channel layout                           : L R
  • Sampling rate                            : 48.0 kHz
  • Frame rate                               : 31.250 FPS (1536 SPF)
  • Compression mode                         : Lossy
  • Stream size                              : 133 MiB (2%)
  • Language                                 : Japanese
  • Service kind                             : Complete Main
  • Default                                  : Yes
  • Forced                                   : No
  • Text
  • ID                                       : 3
  • Format                                   : UTF-8
  • Codec ID                                 : S_TEXT/UTF8
  • Codec ID/Info                            : UTF-8 Plain Text
  • Duration                                 : 1 h 22 min
  • Bit rate                                 : 30 b/s
  • Count of elements                        : 599
  • Stream size                              : 18.7 KiB (0%)
  • Language                                 : English
  • Default                                  : Yes
  • Forced                                   : No
  • Menu
  • 00:00:00.000                             : en:Chapter 1
  • 00:05:28.328                             : en:Chapter 2
  • 00:11:28.688                             : en:Chapter 3
  • 00:21:35.294                             : en:Chapter 4
  • 00:31:35.894                             : en:Chapter 5
  • 00:38:04.282                             : en:Chapter 6
  • 00:43:40.618                             : en:Chapter 7
  • 00:49:54.992                             : en:Chapter 8
  • 01:01:51.708                             : en:Chapter 9
  • 01:07:14.030                             : en:Chapter 10
  • 01:13:54.430                             : en:Chapter 11

复制代码











4K321提示您  点击下方附件名称  马上开始下载

剑鬼 Sword.Devil.1965.JAPANESE.1080p.AMZN.WEBRip.DDP2.0.x264-SbR 5.76GB

Sword.Devil.1965.JAPANESE.1080p.AMZN.WEBRip.DDP2.0.x264-SbR.torrent ( 29.35 KB )




               
回复

使用道具 举报

全部回复0 显示全部楼层

声明:您在社区发表的所有信息仅代表用户个人观点,与本网站立场无关,希望各位烧友理性发言,不发表违法国家法律禁止的话题。

您需要登录后才可以回帖 登录 | 立即注册

本版积分规则

联系客服 关注微信 下载APP 返回顶部 返回列表