开启左侧

[剧情片] 情感教育 Sentimental.Education.2013.PORTUGUESE.1080p.NF.WEBRip.AAC2.0.x264-SHR 3.41G

蓝鸟 发表于 2021-1-7 17:53:43 | 显示全部楼层 |阅读模式
20190801120031.jpg


译  名 情感教育 / Sentimental Education
片  名 Educa??o Sentimental
年  代 2013
产  地 巴西
语  言 葡萄牙语
上映日期 2013-08-15(洛迦诺电影节)
IMDb评分  6.0/10 from 136 users
IMDb链接  https://www.imdb.com/title/tt3102382
豆瓣评分 0/10 from 0 users
豆瓣链接 https://movie.douban.com/subject/24870497/
片  长 84分钟
导  演 乔洛·比萨尼 Júlio Bressane
主  演 博纳多·马里尼奥 Bernardo Marinho
       黛博拉·奥莉维爱丽 Débora Olivieri


标  签 巴西 | 2013 | 剧情 | 乔洛·比萨尼 | FocusOn | 索菲娅·罗兰 | 电影 | 巴西电影

简  介  

  一个多愁善感的老女人和一个十几岁的男朋友。他们彼此喜欢,所以她和他谈论她自己,她的灵性,神秘主义和存在本身。他们变得形影不离,所以他嫉妒的母亲面对着她。

获奖情况  

  第66届洛迦诺国际电影节(2013)
  金豹奖(提名) 乔洛·比萨尼



该资源信息参数
  • Video
  • ID                                       : 1
  • Format                                   : AVC
  • Format/Info                              : Advanced Video Codec
  • Format profile                           : High@L4
  • Format settings                          : CABAC / 4 Ref Frames
  • Format settings, CABAC                   : Yes
  • Format settings, Reference frames        : 4 frames
  • Codec ID                                 : V_MPEG4/ISO/AVC
  • Duration                                 : 1 h 23 min
  • Bit rate                                 : 5 872 kb/s
  • Width                                    : 1 920 pixels
  • Height                                   : 1 038 pixels
  • Display aspect ratio                     : 1.85:1
  • Frame rate mode                          : Constant
  • Frame rate                               : 23.976 (24000/1001/45778) FPS
  • Color space                              : YUV
  • Chroma subsampling                       : 4:2:0
  • Bit depth                                : 8 bits
  • Scan type                                : Progressive
  • Bits/(Pixel*Frame)                       : 0.123
  • Stream size                              : 3.34 GiB (98%)
  • Writing library                          : x264 core 152 r2854 e9a5903
  • Encoding settings                        : cabac=1 / ref=3 / deblock=1:-1:-1 / analyse=0x3:0x113 / me=hex / subme=8 / psy=1 / psy_rd=1.00:0.15 / mixed_ref=1 / me_range=16 / chroma_me=1 / trellis=2 / 8x8dct=1 / cqm=0 / deadzone=21,11 / fast_pskip=1 / chroma_qp_offset=-3 / threads=24 / lookahead_threads=4 / sliced_threads=0 / nr=0 / decimate=1 / interlaced=0 / NDU3Nzg= / bluray_compat=0 / constrained_intra=0 / bframes=5 / b_pyramid=2 / b_adapt=1 / b_bias=0 / direct=3 / weightb=1 / open_gop=0 / weightp=2 / keyint=46 / keyint_min=24 / scenecut=0 / intra_refresh=0 / rc_lookahead=50 / rc=abr / mbtree=1 / bitrate=5872 / ratetol=1.0 / qcomp=0.60 / qpmin=0 / qpmax=69 / qpstep=4 / vbv_maxrate=9000 / vbv_bufsize=27000 / nal_hrd=none / filler=0 / NDU3Nzg=feCb3SYgnbojFoo / ip_ratio=1.40 / aq=1:1.00
  • Default                                  : Yes
  • Forced                                   : No
  • Audio
  • ID                                       : 2
  • Format                                   : AAC LC
  • Format/Info                              : Advanced Audio Codec Low Complexity
  • Codec ID                                 : A_AAC-2
  • Duration                                 : 1 h 23 min
  • Bit rate                                 : 123 kb/s
  • Channel(s)                               : 2 channels
  • Channel layout                           : L R
  • Sampling rate                            : 48.0 kHz
  • Frame rate                               : 46.875 FPS (1024 SPF)
  • Compression mode                         : Lossy
  • Stream size                              : 73.4 MiB (2%)
  • Language                                 : Portuguese
  • Default                                  : Yes
  • Forced                                   : No
  • Text #1
  • ID                                       : 3
  • Format                                   : UTF-8
  • Codec ID                                 : S_TEXT/UTF8
  • Codec ID/Info                            : UTF-8 Plain Text
  • Duration                                 : 1 h 17 min
  • Bit rate                                 : 23 b/s
  • Count of elements                        : 552
  • Stream size                              : 13.6 KiB (0%)
  • Language                                 : English
  • Default                                  : Yes
  • Forced                                   : No
  • Text #2
  • ID                                       : 4
  • Format                                   : UTF-8
  • Codec ID                                 : S_TEXT/UTF8
  • Codec ID/Info                            : UTF-8 Plain Text
  • Duration                                 : 1 h 17 min
  • Bit rate                                 : 24 b/s
  • Count of elements                        : 550
  • Stream size                              : 14.1 KiB (0%)
  • Language                                 : Italian
  • Default                                  : No
  • Forced                                   : No

复制代码


20190801120031.jpg


20190801120031.jpg


20190801120031.jpg


4K321提示您  点击下方附件名称  马上开始下载

情感教育 Sentimental.Education.2013.PORTUGUESE.1080p.NF.WEBRip.AAC2.0.x264-SHR 3.41GB

Sentimental.Education.2013.PORTUGUESE.1080p.NF.WEBRip.AAC2.0.x264-SHR.torrent ( 34.65 KB )




               
回复

使用道具 举报

全部回复0 显示全部楼层

声明:您在社区发表的所有信息仅代表用户个人观点,与本网站立场无关,希望各位烧友理性发言,不发表违法国家法律禁止的话题。

您需要登录后才可以回帖 登录 | 立即注册

本版积分规则

联系客服 关注微信 下载APP 返回顶部 返回列表