开启左侧

[剧情片] 幸福相邻 Happiness.Adjacent.2018.1080p.AMZN.WEBRip.DDP2.0.x264-LOKiHD 8.29GB

蓝鸟 发表于 2021-1-7 17:52:28 | 显示全部楼层 |阅读模式



译  名 幸福相邻
片  名 Happiness Adjacent
年  代 2017
产  地 美国
类  别 剧情
语  言 英语
IMDb评分  6.0/10 from 152 users
IMDb链接  https://www.imdb.com/title/tt6902722
豆瓣评分 0/10 from 0 users
豆瓣链接 https://movie.douban.com/subject/27132704/
导  演 罗伯·威廉姆斯 Rob Williams
编  剧 罗伯·威廉姆斯 Rob Williams
主  演 瑞秋·艾里格 Rachel Alig


标  签 同性 | 美国 | 约炮 | 爱情 | 游轮 | 婚姻

简  介  

  影片讲述了汉克和库尔特之间的浪漫故事。汉克是一个善良的犹太男孩,他绝对不是在寻找爱情。两人在热带度假胜地相遇,同性恋汉克独自旅行,双性恋库尔特与妻子凯特度假,凯特似乎对丈夫的婚外情一无所知。http://www.soapgay.com/video/play/2017-1-1.html



该资源信息参数
  • Video
  • ID                                       : 1
  • Format                                   : AVC
  • Format/Info                              : Advanced Video Codec
  • Format profile                           : High@L4
  • Format settings                          : CABAC / 4 Ref Frames
  • Format settings, CABAC                   : Yes
  • Format settings, Reference frames        : 4 frames
  • Codec ID                                 : V_MPEG4/ISO/AVC
  • Duration                                 : 1 h 35 min
  • Bit rate                                 : 12.2 Mb/s
  • Width                                    : 1 920 pixels
  • Height                                   : 1 080 pixels
  • Display aspect ratio                     : 16:9
  • Frame rate mode                          : Constant
  • Frame rate                               : 29.970 (30000/1001/45778) FPS
  • Color space                              : YUV
  • Chroma subsampling                       : 4:2:0
  • Bit depth                                : 8 bits
  • Scan type                                : Progressive
  • Bits/(Pixel*Frame)                       : 0.196
  • Stream size                              : 8.13 GiB (98%)
  • Default                                  : Yes
  • Forced                                   : No
  • Color range                              : Limited
  • Color primaries                          : BT.709
  • Transfer characteristics                 : BT.709
  • Matrix coefficients                      : BT.709
  • Audio
  • ID                                       : 2
  • Format                                   : E-AC-3
  • Format/Info                              : Enhanced AC-3
  • Commercial name                          : Dolby Digital Plus
  • Codec ID                                 : A_EAC3
  • Duration                                 : 1 h 35 min
  • Bit rate mode                            : Constant
  • Bit rate                                 : 224 kb/s
  • Channel(s)                               : 2 channels
  • Channel layout                           : L R
  • Sampling rate                            : 48.0 kHz
  • Frame rate                               : 31.250 FPS (1536 SPF)
  • Compression mode                         : Lossy
  • Stream size                              : 153 MiB (2%)
  • Title                                    : English
  • Language                                 : English
  • Service kind                             : Complete Main
  • Default                                  : Yes
  • Forced                                   : No
  • Text
  • ID                                       : 3
  • Format                                   : UTF-8
  • Codec ID                                 : S_TEXT/UTF8
  • Codec ID/Info                            : UTF-8 Plain Text
  • Duration                                 : 1 h 35 min
  • Bit rate                                 : 49 b/s
  • Count of elements                        : 1361
  • Stream size                              : 35.0 KiB (0%)
  • Title                                    : English [SDH]
  • Language                                 : English
  • Default                                  : No
  • Forced                                   : No

复制代码











4K321提示您  点击下方附件名称  马上开始下载

幸福相邻 Happiness.Adjacent.2018.1080p.AMZN.WEBRip.DDP2.0.x264-LOKiHD 8.29GB

Happiness.Adjacent.2018.1080p.AMZN.WEBRip.DDP2.0.x264-LOKiHD.torrent ( 41.99 KB )




               
回复

使用道具 举报

全部回复0 显示全部楼层

声明:您在社区发表的所有信息仅代表用户个人观点,与本网站立场无关,希望各位烧友理性发言,不发表违法国家法律禁止的话题。

您需要登录后才可以回帖 登录 | 立即注册

本版积分规则

联系客服 关注微信 下载APP 返回顶部 返回列表