开启左侧

[剧情片] 蓝色狂想曲 Rhapsody.in.Blue.1945.1080p.WEBRip.x264-RARBG 2.69GB

蓝鸟 发表于 2021-1-7 17:51:19 | 显示全部楼层 |阅读模式
20190801120031.jpg


译  名 蓝色狂想曲
片  名 Rhapsody in Blue
年  代 1945
产  地 美国
类  别 剧情 / 歌舞 / 传记
语  言 英语
上映日期 1945-09-22
IMDb评分  7.0/10 from 1212 users
IMDb链接  https://www.imdb.com/title/tt0038026
豆瓣评分 0/10 from 0 users
豆瓣链接 https://movie.douban.com/subject/1297636/
片  长 135 分钟
导  演 欧文·拉帕尔 Irving Rapper
编  剧 索恩亚· 莱维恩 Sonya Levien / 克利福德·奥德茨 Clifford Odets / 霍华德·科克 Howard Koch
主  演 罗伯特·阿尔达 Robert Alda
       琼·莱斯利 Joan Leslie
       亚历克西斯·史密斯 Alexis Smith
       查尔斯·科本 Charles Coburn
       朱莉·毕晓普 Julie Bishop
       艾尔伯特·贝瑟曼 Albert Bassermann
       莫里斯·卡诺夫斯基 Morris Carnovsky
       Walter Soderling
       马克·史蒂芬斯 Mark Stevens
       Christian Rub
       Georges Renavent
       George Riley
       Constance Purdy
       Virginia Sale
       Robert Shayne
       Herbert Rudley
       Harry Seymour
       Frank Pharr
       Carl Neubert
       Lillian Porter
       Nellie V. Nichols
       Ray Turner
       Joan Winfield
       Tom Patricola
       阿尔?乔生 Al Jolson
       Henry Busse
       Hazel Scott
       Anne Brown
       乔治·怀特 George White
       保罗·惠特曼 Paul Whiteman
       Elsa Maxwell
       John B. Hughes
       奥斯卡·黎凡特 Oscar Levant
       Al Gallodoro
       威尔·赖特 Will Wright
       Theodore von Eltz
       查尔斯·沃尔德伦 Charles Waldron
       Andrew Tombes
       Broderick O"Farrell
       Jay Novello
       Armand Cortes
       Jack Chefe
       奥利弗布莱克 Oliver Blake
       Elsa Basserman
       LeRoi Antoine
       厄尼·亚当斯 Ernie Adams
       Lynn Baggett
       格伦·安德斯 Glenn Anders
       Clarence Badger Jr.
       弗兰克·雷歇尔 Frank Reicher
       凯特·哈林顿 Kate Harrington
       比尔·肯尼迪 Bill Kennedy
       杰伊·伊顿 Jay Eaton
       约翰尼·唐斯 Johnny Downs
       Martin Noble
       Odette Myrtil
       Esther Michelson
       Oscar Loraine
       埃迪·马尔 Eddie Marr
       Wilbur Mack
       Jacques Lory
       Ivan Lebedeff
       Bobby Johnson
       达里尔·希克曼 Darryl Hickman
       Ernest Golm
       Shep Houghton
       Jesse Graves
       查尔斯·霍尔顿 Charles Halton
       Gregory Golubeff
       罗斯玛丽·德坎普 Rosemary DeCamp
       约翰·迪尔森 John Dilson


标  签 美国 | 音乐 | 传记 | 美国电影 | 动画 | 乔治·葛希文 | 短片 | 1940s

简  介  

  暂无相关剧情介绍

获奖情况  

  第18届奥斯卡金像奖(1946)
  最佳录音(提名) 内森·莱文森
  歌舞片最佳配乐(提名) 雷·海因多夫 / 马克思·斯坦纳

  第1届戛纳电影节(1946)
  主竞赛单元(提名) 欧文·拉帕尔



该资源信息参数
  • Video
  • ID                                       : 1
  • Format                                   : AVC
  • Format/Info                              : Advanced Video Codec
  • Format profile                           : High@L4.1
  • Format settings                          : CABAC / 4 Ref Frames
  • Format settings, CABAC                   : Yes
  • Format settings, Reference frames        : 4 frames
  • Codec ID                                 : avc1
  • Codec ID/Info                            : Advanced Video Coding
  • Duration                                 : 2 h 21 min
  • Bit rate                                 : 2 500 kb/s
  • Width                                    : 1 440 pixels
  • Height                                   : 1 080 pixels
  • Display aspect ratio                     : 4:3
  • Frame rate mode                          : Constant
  • Frame rate                               : 23.976 (23976/1000/45778) FPS
  • Color space                              : YUV
  • Chroma subsampling                       : 4:2:0
  • Bit depth                                : 8 bits
  • Scan type                                : Progressive
  • Bits/(Pixel*Frame)                       : 0.067
  • Stream size                              : 2.46 GiB (92%)
  • Writing library                          : x264 core 152 r2851M ba24899
  • Encoding settings                        : cabac=1 / ref=4 / deblock=1:-1:-1 / analyse=0x3:0x113 / me=umh / subme=9 / psy=1 / psy_rd=1.00:0.15 / mixed_ref=1 / me_range=24 / chroma_me=1 / trellis=2 / 8x8dct=1 / cqm=0 / deadzone=21,11 / fast_pskip=1 / chroma_qp_offset=-3 / threads=16 / lookahead_threads=4 / sliced_threads=0 / nr=0 / decimate=1 / interlaced=0 / NDU3Nzg= / bluray_compat=0 / constrained_intra=0 / bframes=3 / b_pyramid=2 / b_adapt=2 / b_bias=0 / direct=3 / weightb=1 / open_gop=0 / weightp=2 / keyint=250 / keyint_min=25 / scenecut=40 / intra_refresh=0 / rc_lookahead=50 / rc=2pass / mbtree=1 / bitrate=2500 / ratetol=1.0 / qcomp=0.60 / qpmin=0 / qpmax=69 / qpstep=4 / cplxblur=20.0 / qblur=0.5 / vbv_maxrate=31250 / vbv_bufsize=31250 / nal_hrd=none / filler=0 / NDU3Nzg=feCb3SYgnbojFoo / ip_ratio=1.40 / aq=3:1.00
  • Encoded date                             : UTC 2020-12-25 12:38:07
  • Tagged date                              : UTC 2020-12-25 12:38:07
  • Codec configuration box                  : avcC
  • Audio
  • ID                                       : 2
  • Format                                   : AAC LC
  • Format/Info                              : Advanced Audio Codec Low Complexity
  • Codec ID                                 : mp4a-40-2
  • Duration                                 : 2 h 21 min
  • Duration_LastFrame                       : -11 ms
  • Bit rate mode                            : Constant
  • Bit rate                                 : 224 kb/s
  • Channel(s)                               : 2 channels
  • Channel layout                           : L R
  • Sampling rate                            : 48.0 kHz
  • Frame rate                               : 46.875 FPS (1024 SPF)
  • Compression mode                         : Lossy
  • Stream size                              : 226 MiB (8%)
  • Language                                 : English
  • Default                                  : Yes
  • Alternate group                          : 1
  • Encoded date                             : UTC 2020-12-25 12:38:07
  • Tagged date                              : UTC 2020-12-25 12:38:07

复制代码


20190801120031.jpg


20190801120031.jpg


20190801120031.jpg


4K321提示您  点击下方附件名称  马上开始下载

蓝色狂想曲 Rhapsody.in.Blue.1945.1080p.WEBRip.x264-RARBG 2.69GB

Rhapsody.in.Blue.1945.1080p.WEBRip.x264-RARBG.torrent ( 27.54 KB )




               
回复

使用道具 举报

全部回复0 显示全部楼层

声明:您在社区发表的所有信息仅代表用户个人观点,与本网站立场无关,希望各位烧友理性发言,不发表违法国家法律禁止的话题。

您需要登录后才可以回帖 登录 | 立即注册

本版积分规则

联系客服 关注微信 下载APP 返回顶部 返回列表