开启左侧

[剧情片] 柠檬 Lemon.2017.1080p.AMZN.WEBRip.DDP5.1.x264-ISA 5.15GB

蓝鸟 发表于 2021-1-7 17:46:31 | 显示全部楼层 |阅读模式
20190801120031.jpg


译  名 柠檬
片  名 Lemon
年  代 2017
产  地 美国
类  别 剧情 / 喜剧
语  言 英语
上映日期 2017-01(圣丹斯电影节) / 2017-08-18(美国)
IMDb评分  4.6/10 from 1835 users
IMDb链接  https://www.imdb.com/title/tt5973364
豆瓣评分 0/10 from 0 users
豆瓣链接 https://movie.douban.com/subject/26929046/
片  长 90分钟
导  演 加妮克扎·布拉沃 Janicza Bravo
编  剧 加妮克扎·布拉沃 Janicza Bravo / 布伦特·吉尔曼 Brett Gelman
主  演 布伦特·吉尔曼 Brett Gelman
       朱迪·格雷尔 Judy Greer
       迈克尔·塞拉 Michael Cera
       朱迪·特纳-史密斯 Jodie Turner-Smith
       吉莉安·雅各布斯 Gillian Jacobs
       杰夫·格尔林 Jeff Garlin
       施瑞·阿普莱碧 Shiri Appleby
       梅根·莫拉莉 Megan Mullally
       尼娅·朗 Nia Long
       乔恩·戴利 Jon Daly
       汉克·陈 Hank Chen
       雷亚·普尔曼 Rhea Perlman
       弗雷德·迈拉麦德 Fred Melamed


标  签 美国 | 2017 | 喜剧 | indie | Janicza_Bravo | 美(加)国电影 | JaniczaBravo | [歐美]

简  介  

  A man watches his life unravel after he is left by his blind girlfriend.

获奖情况  

  第33届圣丹斯电影节(2017)
  观众奖 未来创新奖(提名) 加妮克扎·布拉沃

  谷歌为您翻译:
  一名盲人女友离开后,一名男子看着自己的生活破裂。

  腾讯为您翻译:
  一个男人在他的盲人女友离开后看着他的生活。

  本站为您翻译:
  一个男人眼睁睁地看着自己的生活被他的盲女友抛弃。




该资源信息参数
  • Video
  • ID                                       : 1
  • Format                                   : AVC
  • Format/Info                              : Advanced Video Codec
  • Format profile                           : High@L4
  • Format settings                          : CABAC / 4 Ref Frames
  • Format settings, CABAC                   : Yes
  • Format settings, Reference frames        : 4 frames
  • Codec ID                                 : V_MPEG4/ISO/AVC
  • Duration                                 : 1 h 22 min
  • Bit rate mode                            : Constant
  • Bit rate                                 : 8 266 kb/s
  • Nominal bit rate                         : 10 000 kb/s
  • Width                                    : 1 920 pixels
  • Height                                   : 800 pixels
  • Display aspect ratio                     : 2.40:1
  • Frame rate mode                          : Constant
  • Frame rate                               : 23.976 (24000/1001/45778) FPS
  • Color space                              : YUV
  • Chroma subsampling                       : 4:2:0
  • Bit depth                                : 8 bits
  • Scan type                                : Progressive
  • Bits/(Pixel*Frame)                       : 0.224
  • Stream size                              : 4.78 GiB (93%)
  • Language                                 : English
  • Default                                  : Yes
  • Forced                                   : No
  • Color range                              : Limited
  • Color primaries                          : BT.709
  • Transfer characteristics                 : BT.709
  • Matrix coefficients                      : BT.709
  • Audio
  • ID                                       : 2
  • Format                                   : E-AC-3
  • Format/Info                              : Enhanced AC-3
  • Commercial name                          : Dolby Digital Plus
  • Codec ID                                 : A_EAC3
  • Duration                                 : 1 h 22 min
  • Bit rate mode                            : Constant
  • Bit rate                                 : 640 kb/s
  • Channel(s)                               : 6 channels
  • Channel layout                           : L R C LFE Ls Rs
  • Sampling rate                            : 48.0 kHz
  • Frame rate                               : 31.250 FPS (1536 SPF)
  • Compression mode                         : Lossy
  • Stream size                              : 379 MiB (7%)
  • Language                                 : English
  • Service kind                             : Complete Main
  • Default                                  : No
  • Forced                                   : No
  • Text
  • ID                                       : 3
  • Format                                   : UTF-8
  • Codec ID                                 : S_TEXT/UTF8
  • Codec ID/Info                            : UTF-8 Plain Text
  • Duration                                 : 1 h 22 min
  • Bit rate                                 : 71 b/s
  • Count of elements                        : 1300
  • Stream size                              : 43.0 KiB (0%)
  • Title                                    : SDH
  • Language                                 : English
  • Default                                  : No
  • Forced                                   : No

复制代码


20190801120031.jpg


20190801120031.jpg


20190801120031.jpg


4K321提示您  点击下方附件名称  马上开始下载

柠檬 Lemon.2017.1080p.AMZN.WEBRip.DDP5.1.x264-ISA 5.15GB

Lemon.2017.1080p.AMZN.WEBRip.DDP5.1.x264-ISA.torrent ( 26.27 KB )




               
回复

使用道具 举报

全部回复0 显示全部楼层

声明:您在社区发表的所有信息仅代表用户个人观点,与本网站立场无关,希望各位烧友理性发言,不发表违法国家法律禁止的话题。

您需要登录后才可以回帖 登录 | 立即注册

本版积分规则

联系客服 关注微信 下载APP 返回顶部 返回列表