开启左侧

[剧情片] 敌友旅程 The.Journey.2016.1080p.NF.WEBRip.DDP5.1.x264-KD7 2.15GB

蓝鸟 发表于 2021-1-7 17:34:53 | 显示全部楼层 |阅读模式



译  名 敌友旅程
片  名 The Journey
年  代 2017
产  地 英国
类  别 剧情
语  言 英语
上映日期 2016-09-07(威尼斯电影节)
IMDb评分  6.6/10 from 1502 users
IMDb链接  https://www.imdb.com/title/tt4826674
豆瓣评分 0/10 from 0 users
豆瓣链接 https://movie.douban.com/subject/26436593/
片  长 94分钟
导  演 尼克·哈姆 Nick Hamm
编  剧 科林·贝特曼 Colin Bateman
主  演 弗莱迪·海默 Freddie Highmore
       托比·斯蒂芬斯 Toby Stephens
       约翰·赫特 John Hurt
       凯瑟琳·麦克马克 Catherine McCormack
       蒂莫西·斯波 Timothy Spall
       科尔姆·米尼 Colm Meaney
       伊恩·麦克尔希尼 Ian McElhinney
       伊恩·比蒂 Ian Beattie
       巴里·沃德 Barry Ward


标  签 政治 | 英国 | 公路 | FreddieHighmore | 英国电影 | 剧情 | 2017 | 美国电影

简  介  

  蒂莫西·斯波将出演导演尼克·哈姆新作《旅程》(The Journey,暂译)。影片根据真实事件改编,讲述北爱尔兰民主统一党党魁伊恩·佩斯利(蒂莫西·斯波饰),与新芬运动政客马丁·麦吉尼斯之间亦敌亦友的故事。影片预计9月中旬在北爱尔兰和苏格兰取景拍摄,上映档期未定。



该资源信息参数
  • Video
  • ID                                       : 1
  • Format                                   : AVC
  • Format/Info                              : Advanced Video Codec
  • Format profile                           : High@L4
  • Format settings                          : CABAC / 4 Ref Frames
  • Format settings, CABAC                   : Yes
  • Format settings, Reference frames        : 4 frames
  • Codec ID                                 : V_MPEG4/ISO/AVC
  • Duration                                 : 1 h 34 min
  • Bit rate mode                            : Variable
  • Bit rate                                 : 2 618 kb/s
  • Maximum bit rate                         : 20.0 Mb/s
  • Width                                    : 1 920 pixels
  • Height                                   : 1 080 pixels
  • Display aspect ratio                     : 16:9
  • Frame rate mode                          : Constant
  • Frame rate                               : 23.976 (24000/1001/45778) FPS
  • Color space                              : YUV
  • Chroma subsampling                       : 4:2:0
  • Bit depth                                : 8 bits
  • Scan type                                : Progressive
  • Bits/(Pixel*Frame)                       : 0.053
  • Stream size                              : 1.73 GiB (80%)
  • Writing library                          : x264 core 148 r2715 7e75228
  • Encoding settings                        : cabac=1 / ref=4 / deblock=1:0:0 / analyse=0x3:0x111 / me=umh / subme=10 / psy=1 / psy_rd=1.00:0.00 / mixed_ref=1 / me_range=120 / chroma_me=1 / trellis=2 / 8x8dct=1 / cqm=0 / deadzone=21,11 / fast_pskip=1 / chroma_qp_offset=-2 / threads=8 / lookahead_threads=2 / sliced_threads=0 / nr=0 / decimate=1 / interlaced=0 / NDU3Nzg= / bluray_compat=0 / stitchable=1 / constrained_intra=0 / bframes=16 / b_pyramid=2 / b_adapt=2 / b_bias=0 / direct=3 / weightb=1 / open_gop=0 / weightp=2 / keyint=240 / keyint_min=121 / scenecut=0 / intra_refresh=0 / rc_lookahead=240 / rc=crf / mbtree=1 / crf=20.0 / qcomp=0.50 / qpmin=6 / qpmax=51 / qpstep=4 / vbv_maxrate=20000 / vbv_bufsize=25000 / crf_max=0.0 / nal_hrd=vbr / filler=0 / NDU3Nzg=feCb3SYgnbojFoo / ip_ratio=1.40 / aq=1:0.80
  • Default                                  : Yes
  • Forced                                   : No
  • Audio
  • ID                                       : 2
  • Format                                   : E-AC-3
  • Format/Info                              : Enhanced AC-3
  • Commercial name                          : Dolby Digital Plus
  • Codec ID                                 : A_EAC3
  • Duration                                 : 1 h 34 min
  • Bit rate mode                            : Constant
  • Bit rate                                 : 640 kb/s
  • Channel(s)                               : 6 channels
  • Channel layout                           : L R C LFE Ls Rs
  • Sampling rate                            : 48.0 kHz
  • Frame rate                               : 31.250 FPS (1536 SPF)
  • Compression mode                         : Lossy
  • Stream size                              : 432 MiB (20%)
  • Title                                    : English
  • Language                                 : English
  • Service kind                             : Complete Main
  • Default                                  : Yes
  • Forced                                   : No
  • Text
  • ID                                       : 3
  • Format                                   : UTF-8
  • Codec ID                                 : S_TEXT/UTF8
  • Codec ID/Info                            : UTF-8 Plain Text
  • Duration                                 : 1 h 32 min
  • Bit rate                                 : 65 b/s
  • Count of elements                        : 1461
  • Stream size                              : 44.3 KiB (0%)
  • Title                                    : English [SDH]
  • Language                                 : English
  • Default                                  : No
  • Forced                                   : No

复制代码











4K321提示您  点击下方附件名称  马上开始下载

敌友旅程 The.Journey.2016.1080p.NF.WEBRip.DDP5.1.x264-KD7 2.15GB

The.Journey.2016.1080p.NF.WEBRip.DDP5.1.x264-KD7.torrent ( 22.02 KB )




               
回复

使用道具 举报

全部回复0 显示全部楼层

声明:您在社区发表的所有信息仅代表用户个人观点,与本网站立场无关,希望各位烧友理性发言,不发表违法国家法律禁止的话题。

您需要登录后才可以回帖 登录 | 立即注册

本版积分规则

联系客服 关注微信 下载APP 返回顶部 返回列表