开启左侧

[剧情片] 圣诞重聚 A.Christmas.Reunion.2015.1080p.AMZN.WEBRip.DDP2.0.x264-XEEDER 5.72GB

蓝鸟 发表于 2021-1-7 17:30:03 | 显示全部楼层 |阅读模式
20190801120031.jpg


译  名 圣诞重聚
片  名 A Christmas Reunion
年  代 2015
产  地 美国
语  言 英语
上映日期 2015-12-13(美国)
IMDb评分  5.2/10 from 609 users
IMDb链接  https://www.imdb.com/title/tt5130174
豆瓣评分 0/10 from 0 users
豆瓣链接 https://movie.douban.com/subject/30244179/
导  演 肖恩·欧森 Sean Olson
主  演 丹妮丝·理查兹 Denise Richards
       帕特里克·茂顿 Patrick Muldoon
       杰克·布塞 Jake Busey


标  签 美国 | 温情 | 治愈 | 2015

简  介  

  在一个叫栗树丘的小镇上,每年都会在平安夜举行一个饼干大赛,参观是弗兰克.奥布莱恩先生提供的,他参赛的饼干是融化雪人饼干,但是却没有得过奖。20年来是琳达.莎莉文主办的饼干大赛,每年得奖那个饼干秘方会收藏在琳达的配方盒中。琳达带着两个孩子一起参加,分别是斯顿.艾米和杰克,他们一起做了圣诞星光饼干。 一晃三十年过去了。圣诞前夕,在纽约工作的艾米被老板提拔为公司的初级合伙人,还沉浸在升职喜悦中的艾米,因为一通电话飞回了栗树丘,见到了昔日一帮老友,也遇到了从小青梅竹马的杰克。在得知琳达的遗愿是想让关闭已久的面包店重新开张,并复活圣诞饼干大赛这一传统时,俩人召集了镇上的好友一起绞尽脑汁的行动起来。就在大赛的那天晚上,艾米做了一个决定,放弃了纽约的工作,回到家乡参加大赛,并且和杰克在一起,开着舅妈留下的烘焙店。



该资源信息参数
  • Video
  • ID                                       : 3
  • Format                                   : AVC
  • Format/Info                              : Advanced Video Codec
  • Format profile                           : High@L4
  • Format settings                          : CABAC / 4 Ref Frames
  • Format settings, CABAC                   : Yes
  • Format settings, Reference frames        : 4 frames
  • Codec ID                                 : V_MPEG4/ISO/AVC
  • Duration                                 : 1 h 27 min
  • Bit rate mode                            : Constant
  • Bit rate                                 : 9 149 kb/s
  • Nominal bit rate                         : 10 000 kb/s
  • Width                                    : 1 920 pixels
  • Height                                   : 1 080 pixels
  • Display aspect ratio                     : 16:9
  • Frame rate mode                          : Constant
  • Frame rate                               : 23.976 (24000/1001/45778) FPS
  • Color space                              : YUV
  • Chroma subsampling                       : 4:2:0
  • Bit depth                                : 8 bits
  • Scan type                                : Progressive
  • Bits/(Pixel*Frame)                       : 0.184
  • Stream size                              : 5.58 GiB (98%)
  • Default                                  : Yes
  • Forced                                   : No
  • Color range                              : Limited
  • Color primaries                          : BT.709
  • Transfer characteristics                 : BT.709
  • Matrix coefficients                      : BT.709
  • Audio
  • ID                                       : 2
  • Format                                   : E-AC-3
  • Format/Info                              : Enhanced AC-3
  • Commercial name                          : Dolby Digital Plus
  • Codec ID                                 : A_EAC3
  • Duration                                 : 1 h 27 min
  • Bit rate mode                            : Constant
  • Bit rate                                 : 224 kb/s
  • Channel(s)                               : 2 channels
  • Channel layout                           : L R
  • Sampling rate                            : 48.0 kHz
  • Frame rate                               : 31.250 FPS (1536 SPF)
  • Compression mode                         : Lossy
  • Stream size                              : 140 MiB (2%)
  • Language                                 : English
  • Service kind                             : Complete Main
  • Default                                  : Yes
  • Forced                                   : No
  • Text
  • ID                                       : 1
  • Format                                   : UTF-8
  • Codec ID                                 : S_TEXT/UTF8
  • Codec ID/Info                            : UTF-8 Plain Text
  • Duration                                 : 1 h 26 min
  • Bit rate                                 : 90 b/s
  • Count of elements                        : 1832
  • Stream size                              : 57.2 KiB (0%)
  • Language                                 : English
  • Default                                  : No
  • Forced                                   : No

复制代码


20190801120031.jpg


20190801120031.jpg


20190801120031.jpg


4K321提示您  点击下方附件名称  马上开始下载

圣诞重聚 A.Christmas.Reunion.2015.1080p.AMZN.WEBRip.DDP2.0.x264-XEEDER 5.72GB

A.Christmas.Reunion.2015.1080p.AMZN.WEBRip.DDP2.0.x264-XEEDER.torrent ( 29.18 KB )




               
回复

使用道具 举报

全部回复0 显示全部楼层

声明:您在社区发表的所有信息仅代表用户个人观点,与本网站立场无关,希望各位烧友理性发言,不发表违法国家法律禁止的话题。

您需要登录后才可以回帖 登录 | 立即注册

本版积分规则

联系客服 关注微信 下载APP 返回顶部 返回列表