开启左侧

[剧情片] 圣周 Semana.Santa.2015.SPANISH.1080p.NF.WEBRip.DDP5.1.x264-KD7 1.52GB

蓝鸟 发表于 2021-1-7 17:23:48 | 显示全部楼层 |阅读模式
20190801120031.jpg


译  名 圣周
片  名 Semana Santa
年  代 2015
产  地 墨西哥
类  别 剧情
语  言 西班牙语 / 英语
IMDb评分  6.0/10 from 161 users
IMDb链接  https://www.imdb.com/title/tt3616724
豆瓣评分 0/10 from 0 users
豆瓣链接 https://movie.douban.com/subject/26598826/
片  长 85分钟
主  演 大卫·桑顿 David Thornton
       特诺切·韦尔塔 Tenoch Huerta
       拉克希米·皮卡佐 Lakshmi Picazo


简  介  

  Dali and her 8 year old son Pepe take a vacation with Dali"s boyfriend, Chavez. Instead of bringing them closer, their beach holiday brings out things in each of them that threaten to pull this emerging family apart.

  谷歌为您翻译:
  Dali和她8岁的儿子Pepe与Dali的男友Chavez一起度假。他们的海滩假期并没有使他们离得更近,而是让他们每个人都感受到了使这个新兴家庭分裂的危险。

  腾讯为您翻译:
  达利和她8岁的儿子佩佩和达利的男朋友查韦斯度假。他们的海滩假日并不是让他们靠近,而是会带来每一个人的事情,这些事情威胁着这个新兴家庭的分离。

  本站为您翻译:
  达利和她8岁的儿子佩佩与达利的男友查韦斯一起度假。他们的海滩度假不仅没有拉近彼此的距离,反而让他们每个人都暴露出一些问题,这些问题可能会让这个新兴家庭四分五裂。




该资源信息参数
  • Video
  • ID                                       : 1
  • Format                                   : AVC
  • Format/Info                              : Advanced Video Codec
  • Format profile                           : High@L4
  • Format settings                          : CABAC / 4 Ref Frames
  • Format settings, CABAC                   : Yes
  • Format settings, Reference frames        : 4 frames
  • Codec ID                                 : V_MPEG4/ISO/AVC
  • Duration                                 : 1 h 27 min
  • Bit rate mode                            : Variable
  • Bit rate                                 : 1 851 kb/s
  • Maximum bit rate                         : 20.0 Mb/s
  • Width                                    : 1 920 pixels
  • Height                                   : 1 080 pixels
  • Display aspect ratio                     : 16:9
  • Frame rate mode                          : Constant
  • Frame rate                               : 23.976 (24000/1001/45778) FPS
  • Color space                              : YUV
  • Chroma subsampling                       : 4:2:0
  • Bit depth                                : 8 bits
  • Scan type                                : Progressive
  • Bits/(Pixel*Frame)                       : 0.037
  • Stream size                              : 1.13 GiB (74%)
  • Writing library                          : x264 core 148 r2715 7e75228
  • Encoding settings                        : cabac=1 / ref=4 / deblock=1:0:0 / analyse=0x3:0x111 / me=umh / subme=10 / psy=1 / psy_rd=1.00:0.00 / mixed_ref=1 / me_range=120 / chroma_me=1 / trellis=2 / 8x8dct=1 / cqm=0 / deadzone=21,11 / fast_pskip=1 / chroma_qp_offset=-2 / threads=8 / lookahead_threads=2 / sliced_threads=0 / nr=0 / decimate=1 / interlaced=0 / NDU3Nzg= / bluray_compat=0 / stitchable=1 / constrained_intra=0 / bframes=16 / b_pyramid=2 / b_adapt=2 / b_bias=0 / direct=3 / weightb=1 / open_gop=0 / weightp=2 / keyint=240 / keyint_min=121 / scenecut=0 / intra_refresh=0 / rc_lookahead=240 / rc=crf / mbtree=1 / crf=20.0 / qcomp=0.50 / qpmin=6 / qpmax=51 / qpstep=4 / vbv_maxrate=20000 / vbv_bufsize=25000 / crf_max=0.0 / nal_hrd=vbr / filler=0 / NDU3Nzg=feCb3SYgnbojFoo / ip_ratio=1.40 / aq=1:0.80
  • Default                                  : Yes
  • Forced                                   : No
  • Audio
  • ID                                       : 2
  • Format                                   : E-AC-3
  • Format/Info                              : Enhanced AC-3
  • Commercial name                          : Dolby Digital Plus
  • Codec ID                                 : A_EAC3
  • Duration                                 : 1 h 27 min
  • Bit rate mode                            : Constant
  • Bit rate                                 : 640 kb/s
  • Channel(s)                               : 6 channels
  • Channel layout                           : L R C LFE Ls Rs
  • Sampling rate                            : 48.0 kHz
  • Frame rate                               : 31.250 FPS (1536 SPF)
  • Compression mode                         : Lossy
  • Stream size                              : 400 MiB (26%)
  • Title                                    : Spanish
  • Language                                 : Spanish
  • Service kind                             : Complete Main
  • Default                                  : No
  • Forced                                   : No
  • Text #1
  • ID                                       : 3
  • Format                                   : UTF-8
  • Codec ID                                 : S_TEXT/UTF8
  • Codec ID/Info                            : UTF-8 Plain Text
  • Duration                                 : 1 h 19 min
  • Bit rate                                 : 26 b/s
  • Count of elements                        : 612
  • Stream size                              : 15.7 KiB (0%)
  • Title                                    : English [Full]
  • Language                                 : English
  • Default                                  : Yes
  • Forced                                   : No
  • Text #2
  • ID                                       : 4
  • Format                                   : UTF-8
  • Codec ID                                 : S_TEXT/UTF8
  • Codec ID/Info                            : UTF-8 Plain Text
  • Duration                                 : 1 h 20 min
  • Bit rate                                 : 30 b/s
  • Count of elements                        : 683
  • Stream size                              : 18.1 KiB (0%)
  • Title                                    : Spanish [SDH]
  • Language                                 : Spanish
  • Default                                  : No
  • Forced                                   : No
  • Text #3
  • ID                                       : 5
  • Format                                   : UTF-8
  • Codec ID                                 : S_TEXT/UTF8
  • Codec ID/Info                            : UTF-8 Plain Text
  • Duration                                 : 1 h 25 min
  • Bit rate                                 : 25 b/s
  • Count of elements                        : 629
  • Stream size                              : 16.3 KiB (0%)
  • Title                                    : Turkish [Full]
  • Language                                 : Turkish
  • Default                                  : No
  • Forced                                   : No
  • Text #4
  • ID                                       : 6
  • Format                                   : UTF-8
  • Codec ID                                 : S_TEXT/UTF8
  • Codec ID/Info                            : UTF-8 Plain Text
  • Duration                                 : 1 h 20 min
  • Bit rate                                 : 36 b/s
  • Count of elements                        : 543
  • Stream size                              : 21.2 KiB (0%)
  • Title                                    : Hebrew [Full]
  • Language                                 : Hebrew
  • Default                                  : No
  • Forced                                   : No
  • Text #5
  • ID                                       : 7
  • Format                                   : UTF-8
  • Codec ID                                 : S_TEXT/UTF8
  • Codec ID/Info                            : UTF-8 Plain Text
  • Duration                                 : 1 h 25 min
  • Bit rate                                 : 44 b/s
  • Count of elements                        : 629
  • Stream size                              : 27.9 KiB (0%)
  • Title                                    : Arabic [Full]
  • Language                                 : Arabic
  • Default                                  : No
  • Forced                                   : No
  • Text #6
  • ID                                       : 8
  • Format                                   : UTF-8
  • Codec ID                                 : S_TEXT/UTF8
  • Codec ID/Info                            : UTF-8 Plain Text
  • Duration                                 : 1 h 25 min
  • Bit rate                                 : 55 b/s
  • Count of elements                        : 573
  • Stream size                              : 35.1 KiB (0%)
  • Title                                    : Thai [Full]
  • Language                                 : Thai
  • Default                                  : No
  • Forced                                   : No
  • Text #7
  • ID                                       : 9
  • Format                                   : UTF-8
  • Codec ID                                 : S_TEXT/UTF8
  • Codec ID/Info                            : UTF-8 Plain Text
  • Duration                                 : 1 h 25 min
  • Bit rate                                 : 21 b/s
  • Count of elements                        : 629
  • Stream size                              : 13.6 KiB (0%)
  • Title                                    : Chinese (Simplified) [Full]
  • Language                                 : Chinese
  • Default                                  : No
  • Forced                                   : No
  • Text #8
  • ID                                       : 10
  • Format                                   : UTF-8
  • Codec ID                                 : S_TEXT/UTF8
  • Codec ID/Info                            : UTF-8 Plain Text
  • Duration                                 : 1 h 25 min
  • Bit rate                                 : 22 b/s
  • Count of elements                        : 629
  • Stream size                              : 14.3 KiB (0%)
  • Title                                    : Chinese (Traditional) [Full]
  • Language                                 : Chinese
  • Default                                  : No
  • Forced                                   : No

复制代码


20190801120031.jpg


20190801120031.jpg


20190801120031.jpg


4K321提示您  点击下方附件名称  马上开始下载

圣周 Semana.Santa.2015.SPANISH.1080p.NF.WEBRip.DDP5.1.x264-KD7 1.52GB

Semana.Santa.2015.SPANISH.1080p.NF.WEBRip.DDP5.1.x264-KD7.torrent ( 15.76 KB )




               
回复

使用道具 举报

全部回复0 显示全部楼层

声明:您在社区发表的所有信息仅代表用户个人观点,与本网站立场无关,希望各位烧友理性发言,不发表违法国家法律禁止的话题。

您需要登录后才可以回帖 登录 | 立即注册

本版积分规则

联系客服 关注微信 下载APP 返回顶部 返回列表