开启左侧

[剧情片] 风吹麦浪/吹动大麦的风 The.Wind.That.Shakes.the.Barley.2006.1080p.WEBRip.x264-RARBG 2.41GB

蓝鸟 发表于 2021-1-7 17:21:25 | 显示全部楼层 |阅读模式



译  名 风吹麦浪 / 吹动大麦的风(台) / 风吹稻浪
片  名 The Wind That Shakes the Barley
年  代 2006
产  地 爱尔兰 / 英国 / 德国 / 意大利 / 西班牙 / 法国 / 比利时 / 瑞典
类  别 剧情 / 历史 / 战争
语  言 英语 / 爱尔兰语 / 拉丁语
上映日期 2006-06-23
IMDb评分  7.5/10 from 45592 users
IMDb链接  https://www.imdb.com/title/tt0460989
豆瓣评分 8.0/10 from 13264 users
豆瓣链接 https://movie.douban.com/subject/1780122/
片  长 127 分钟
导  演 肯·洛奇 Ken Loach
编  剧 保罗·拉弗蒂 Paul Laverty
主  演 基里安·墨菲 Cillian Murphy
       帕德莱克·德兰尼 Padraic Delaney
       利亚姆·坎宁安 Liam Cunningham
       马克·瓦克林 Mark Wakeling
       希沃恩·麦克斯维尼 Siobhan McSweeney
       奥拉·菲茨杰拉德 Orla Fitzgerald
       罗杰·阿拉姆 Roger Allam
       辛·麦金利 Sean McGinley
       威廉·阿姆斯壮 William Armstrong
       丹尼斯·康威 Denis Conway
       Niall McCarthy
       威廉·鲁尼 William Ruane
       杰米洛玛斯 Jamie Lomas


标  签 爱尔兰 | 战争 | 英国 | 英国电影 | 历史 | 2006 | 剧情 | KenLoach

简  介  

  20世纪二十年代,英国和爱尔兰之间的矛盾不断加深,最终爆发爱尔兰独立战争。原本拥有光明前途的医科大学生达米安(Cillian Murphy 饰)得知战争爆发,毅然投笔从戎。他回到家乡,与弟弟泰迪(Padraic Delaney 饰)、好友丹(Liam Cunningham 饰)一起加入了爱尔兰共和军。这群青年凭借满腔热血以及出色的战术,一次次挫败受雇于英国政府的“黑与棕”民兵部队。他们的反抗迫使英军同意签订条约,然而,这也成为昔日战友分道扬镳的岔路口……本片荣获2006年戛纳电影节金棕榈奖、2006年欧洲电影节最佳摄影奖、2007年爱尔兰电视电影奖观众奖最佳爱尔兰影片和IFTA最佳男配角(Liam Cunningham)及最佳影片奖。

获奖情况  

  第59届戛纳电影节(2006)
  主竞赛单元 金棕榈奖 肯·洛奇



该资源信息参数
  • Video
  • ID                                       : 1
  • Format                                   : AVC
  • Format/Info                              : Advanced Video Codec
  • Format profile                           : High@L4.1
  • Format settings                          : CABAC / 4 Ref Frames
  • Format settings, CABAC                   : Yes
  • Format settings, Reference frames        : 4 frames
  • Codec ID                                 : avc1
  • Codec ID/Info                            : Advanced Video Coding
  • Duration                                 : 2 h 6 min
  • Source duration                          : 2 h 6 min
  • Bit rate                                 : 2 500 kb/s
  • Width                                    : 1 920 pixels
  • Height                                   : 1 080 pixels
  • Display aspect ratio                     : 16:9
  • Frame rate mode                          : Constant
  • Frame rate                               : 23.976 (23976/1000/45778) FPS
  • Color space                              : YUV
  • Chroma subsampling                       : 4:2:0
  • Bit depth                                : 8 bits
  • Scan type                                : Progressive
  • Bits/(Pixel*Frame)                       : 0.050
  • Stream size                              : 2.21 GiB (92%)
  • Source stream size                       : 2.21 GiB (92%)
  • Writing library                          : x264 core 152 r2851M ba24899
  • Encoding settings                        : cabac=1 / ref=4 / deblock=1:-1:-1 / analyse=0x3:0x113 / me=umh / subme=9 / psy=1 / psy_rd=1.00:0.15 / mixed_ref=1 / me_range=24 / chroma_me=1 / trellis=2 / 8x8dct=1 / cqm=0 / deadzone=21,11 / fast_pskip=1 / chroma_qp_offset=-3 / threads=16 / lookahead_threads=4 / sliced_threads=0 / nr=0 / decimate=1 / interlaced=0 / NDU3Nzg= / bluray_compat=0 / constrained_intra=0 / bframes=3 / b_pyramid=2 / b_adapt=2 / b_bias=0 / direct=3 / weightb=1 / open_gop=0 / weightp=2 / keyint=250 / keyint_min=25 / scenecut=40 / intra_refresh=0 / rc_lookahead=50 / rc=2pass / mbtree=1 / bitrate=2500 / ratetol=1.0 / qcomp=0.60 / qpmin=0 / qpmax=69 / qpstep=4 / cplxblur=20.0 / qblur=0.5 / vbv_maxrate=31250 / vbv_bufsize=31250 / nal_hrd=none / filler=0 / NDU3Nzg=feCb3SYgnbojFoo / ip_ratio=1.40 / aq=3:1.00
  • Encoded date                             : UTC 2020-12-27 13:42:07
  • Tagged date                              : UTC 2020-12-27 13:42:07
  • Codec configuration box                  : avcC
  • Audio
  • ID                                       : 2
  • Format                                   : AAC LC
  • Format/Info                              : Advanced Audio Codec Low Complexity
  • Codec ID                                 : mp4a-40-2
  • Duration                                 : 2 h 6 min
  • Duration_LastFrame                       : -11 ms
  • Bit rate mode                            : Constant
  • Bit rate                                 : 224 kb/s
  • Channel(s)                               : 6 channels
  • Channel layout                           : C L R Ls Rs LFE
  • Sampling rate                            : 48.0 kHz
  • Frame rate                               : 46.875 FPS (1024 SPF)
  • Compression mode                         : Lossy
  • Stream size                              : 203 MiB (8%)
  • Language                                 : English
  • Default                                  : Yes
  • Alternate group                          : 1
  • Encoded date                             : UTC 2020-12-27 13:42:07
  • Tagged date                              : UTC 2020-12-27 13:42:07

复制代码











4K321提示您  点击下方附件名称  马上开始下载

风吹麦浪/吹动大麦的风 The.Wind.That.Shakes.the.Barley.2006.1080p.WEBRip.x264-RARBG 2.41GB

The.Wind.That.Shakes.the.Barley.2006.1080p.WEBRip.x264-RARBG.torrent ( 24.77 KB )




               
回复

使用道具 举报

全部回复0 显示全部楼层

声明:您在社区发表的所有信息仅代表用户个人观点,与本网站立场无关,希望各位烧友理性发言,不发表违法国家法律禁止的话题。

您需要登录后才可以回帖 登录 | 立即注册

本版积分规则

联系客服 关注微信 下载APP 返回顶部 返回列表