开启左侧

[剧情片] 新忍者/新·忍者 Shinobi.No.Mono.3.Resurrection.1963.JAPANESE.1080p.AMZN.WEBRip.DDP2.0.x

蓝鸟 发表于 2021-1-7 17:20:10 | 显示全部楼层 |阅读模式



译  名 新忍者/Shinobi no Mono 3 Resurrection/新·忍者
片  名 新?忍びの者
年  代 1963
产  地 日本
类  别 剧情 / 动作 / 犯罪
语  言 日语
上映日期 1963-12-28
IMDb评分  6.8/10 from 182 users
IMDb链接  https://www.imdb.com/title/tt0187501/
豆瓣评分 /10 from 0 users
豆瓣链接 https://movie.douban.com/subject/2139276/
片  长 86分钟
导  演 森一生 Kazuo Mori
主  演 伊达三郎 Saburo Date
       细川千贺子 Chikako Hosokawa
       三岛雅夫 Masao Mishima
       若尾文子 Ayako Wakao
       市川雷藏 Raiz? Ichikawa
       东野英治郎 Eijir? T?no

标  签 日本 | 日本电影 | 若尾文子 | 森一生 | 黑白 | 映画チャンネルNECO | 市川雷藏 | 市川雷蔵

简  介

  「忍びの者」シリーズ第三作。釜ゆでの刑から徳川方に密かに助け出された石川五右衛門は、秀吉を倒すよう命令される。



该资源信息参数
  • Video
  • ID                                       : 1
  • Format                                   : AVC
  • Format/Info                              : Advanced Video Codec
  • Format profile                           : High@L4
  • Format settings                          : CABAC / 4 Ref Frames
  • Format settings, CABAC                   : Yes
  • Format settings, Reference frames        : 4 frames
  • Codec ID                                 : V_MPEG4/ISO/AVC
  • Duration                                 : 1 h 25 min
  • Bit rate mode                            : Constant
  • Bit rate                                 : 10 000 kb/s
  • Width                                    : 1 920 pixels
  • Height                                   : 816 pixels
  • Display aspect ratio                     : 2.35:1
  • Frame rate mode                          : Constant
  • Frame rate                               : 23.976 (24000/1001/45778) FPS
  • Color space                              : YUV
  • Chroma subsampling                       : 4:2:0
  • Bit depth                                : 8 bits
  • Scan type                                : Progressive
  • Bits/(Pixel*Frame)                       : 0.266
  • Stream size                              : 5.95 GiB (98%)
  • Language                                 : Japanese
  • Default                                  : Yes
  • Forced                                   : No
  • Color range                              : Limited
  • Color primaries                          : BT.709
  • Transfer characteristics                 : BT.709
  • Matrix coefficients                      : BT.709
  • Audio
  • ID                                       : 2
  • Format                                   : E-AC-3
  • Format/Info                              : Enhanced AC-3
  • Commercial name                          : Dolby Digital Plus
  • Codec ID                                 : A_EAC3
  • Duration                                 : 1 h 25 min
  • Bit rate mode                            : Constant
  • Bit rate                                 : 224 kb/s
  • Channel(s)                               : 2 channels
  • Channel layout                           : L R
  • Sampling rate                            : 48.0 kHz
  • Frame rate                               : 31.250 FPS (1536 SPF)
  • Compression mode                         : Lossy
  • Stream size                              : 138 MiB (2%)
  • Language                                 : Japanese
  • Service kind                             : Complete Main
  • Default                                  : Yes
  • Forced                                   : No
  • Text
  • ID                                       : 3
  • Format                                   : UTF-8
  • Codec ID                                 : S_TEXT/UTF8
  • Codec ID/Info                            : UTF-8 Plain Text
  • Duration                                 : 1 h 25 min
  • Bit rate                                 : 52 b/s
  • Count of elements                        : 762
  • Stream size                              : 33.2 KiB (0%)
  • Language                                 : English
  • Default                                  : Yes
  • Forced                                   : No
  • Menu
  • 00:00:00.000                             : en:Chapter 1
  • 00:01:40.100                             : en:Chapter 2
  • 00:02:42.162                             : en:Chapter 3
  • 00:07:54.474                             : en:Chapter 4
  • 00:11:28.688                             : en:Chapter 5
  • 00:13:34.814                             : en:Chapter 6
  • 00:15:30.930                             : en:Chapter 7
  • 00:18:51.130                             : en:Chapter 8
  • 00:20:49.248                             : en:Chapter 9
  • 00:22:43.362                             : en:Chapter 10
  • 00:27:41.660                             : en:Chapter 11
  • 00:30:33.832                             : en:Chapter 12
  • 00:35:06.104                             : en:Chapter 13
  • 00:38:02.280                             : en:Chapter 14
  • 00:39:50.388                             : en:Chapter 15
  • 00:40:46.444                             : en:Chapter 16
  • 00:43:42.620                             : en:Chapter 17
  • 00:46:06.764                             : en:Chapter 18
  • 00:50:31.028                             : en:Chapter 19
  • 00:55:17.314                             : en:Chapter 20
  • 01:01:27.684                             : en:Chapter 21
  • 01:08:24.100                             : en:Chapter 22
  • 01:13:36.412                             : en:Chapter 23
  • 01:24:01.036                             : en:Chapter 24

复制代码











4K321提示您  点击下方附件名称  马上开始下载

新忍者/新·忍者 Shinobi.No.Mono.3.Resurrection.1963.JAPANESE.1080p.AMZN.WEBRip.DDP2.0.x264-SbR 6.09GB

Shinobi.No.Mono.3.Resurrection.1963.JAPANESE.1080p.AMZN.WEBRip.DDP2.0.x264-SbR.torrent ( 31.03 KB )




               
回复

使用道具 举报

全部回复0 显示全部楼层

声明:您在社区发表的所有信息仅代表用户个人观点,与本网站立场无关,希望各位烧友理性发言,不发表违法国家法律禁止的话题。

您需要登录后才可以回帖 登录 | 立即注册

本版积分规则

联系客服 关注微信 下载APP 返回顶部 返回列表