开启左侧

[剧情片] 圣诞快乐 Merry.Christmas.2013.1080p.AMZN.WEBRip.DDP5.1.x264-NOGRP 8.09GB

蓝鸟 发表于 2021-1-7 17:12:54 | 显示全部楼层 |阅读模式



译  名 圣诞快乐
片  名 Merry Christmas
年  代 2013
产  地 美国
类  别 剧情 / 喜剧
语  言 英语
上映日期 2013-12-06(美国)
IMDb评分  7.3/10 from 16 users
IMDb链接  https://www.imdb.com/title/tt2382246/
豆瓣评分 /10 from 0 users
豆瓣链接 https://movie.douban.com/subject/34923529/
片  长 83分钟
导  演 安娜·康朵 Anna Condo
编  剧 安娜·康朵 Anna Condo
主  演 亚历山德拉·斯图尔特 Alexandra Stewart
       安东尼·朗登 Antony Langdon
       Tibor Feldman
       沃利·邓恩 Wally Dunn
       Eleonore Condo
简  介
  With money running low, nine New Yorkers forgo their annual Christmas in Aspen and head to Pennsylvania for a murder-mystery weekend.
  谷歌为您翻译:
  由于钱用光了,九名纽约人放弃了在阿斯彭的一年一度的圣诞节,前往宾夕法尼亚度过了一个谋杀之谜的周末。
  腾讯为您翻译:
  随着货币运转的低,九名纽约人放弃了他们一年一度的圣诞节在阿斯彭,并前往宾夕法尼亚州,为一个谋杀神秘的周末。
  本站为您翻译:
  由于钱越来越少,九个纽约人放弃了在阿斯彭度过一年一度的圣诞节,前往宾夕法尼亚州度过一个神秘谋杀案的周末。


该资源信息参数
  • Video
  • ID                                       : 1
  • Format                                   : AVC
  • Format/Info                              : Advanced Video Codec
  • Format profile                           : High@L4
  • Format settings                          : CABAC / 4 Ref Frames
  • Format settings, CABAC                   : Yes
  • Format settings, Reference frames        : 4 frames
  • Codec ID                                 : V_MPEG4/ISO/AVC
  • Duration                                 : 1 h 22 min
  • Bit rate                                 : 13.3 Mb/s
  • Width                                    : 1 920 pixels
  • Height                                   : 1 080 pixels
  • Display aspect ratio                     : 16:9
  • Frame rate mode                          : Constant
  • Frame rate                               : 23.976 (24000/1001) FPS
  • Color space                              : YUV
  • Chroma subsampling                       : 4:2:0
  • Bit depth                                : 8 bits
  • Scan type                                : Progressive
  • Bits/(Pixel*Frame)                       : 0.268
  • Stream size                              : 7.72 GiB (95%)
  • Language                                 : English
  • Default                                  : Yes
  • Forced                                   : No
  • Color range                              : Limited
  • Color primaries                          : BT.709
  • Transfer characteristics                 : BT.709
  • Matrix coefficients                      : BT.709
  • Audio
  • ID                                       : 2
  • Format                                   : E-AC-3
  • Format/Info                              : Enhanced AC-3
  • Commercial name                          : Dolby Digital Plus
  • Codec ID                                 : A_EAC3
  • Duration                                 : 1 h 22 min
  • Bit rate mode                            : Constant
  • Bit rate                                 : 640 kb/s
  • Channel(s)                               : 6 channels
  • Channel layout                           : L R C LFE Ls Rs
  • Sampling rate                            : 48.0 kHz
  • Frame rate                               : 31.250 FPS (1536 SPF)
  • Compression mode                         : Lossy
  • Stream size                              : 379 MiB (5%)
  • Language                                 : English
  • Service kind                             : Complete Main
  • Default                                  : Yes
  • Forced                                   : No
  • Text
  • ID                                       : 3
  • Format                                   : UTF-8
  • Codec ID                                 : S_TEXT/UTF8
  • Codec ID/Info                            : UTF-8 Plain Text
  • Duration                                 : 1 h 22 min
  • Bit rate                                 : 126 b/s
  • Count of elements                        : 2207
  • Stream size                              : 76.4 KiB (0%)
  • Language                                 : English
  • Default                                  : Yes
  • Forced                                   : No

复制代码










4K321提示您  点击下方附件名称  马上开始下载

圣诞快乐 Merry.Christmas.2013.1080p.AMZN.WEBRip.DDP5.1.x264-NOGRP 8.09GB

Merry.Christmas.2013.1080p.AMZN.WEBRip.DDP5.1.x264-NOGRP.torrent ( 41 KB )




               
回复

使用道具 举报

全部回复0 显示全部楼层

声明:您在社区发表的所有信息仅代表用户个人观点,与本网站立场无关,希望各位烧友理性发言,不发表违法国家法律禁止的话题。

您需要登录后才可以回帖 登录 | 立即注册

本版积分规则

联系客服 关注微信 下载APP 返回顶部 返回列表