开启左侧

[剧情片] 画迷在纽约 All.the.Vermeers.in.New.York.1990.1080p.AMZN.WEBRip.DDP2.0.x264-TEPES 6.17

蓝鸟 发表于 2021-1-7 17:05:46 | 显示全部楼层 |阅读模式



译  名 画迷在纽约
片  名 All the Vermeers in New York
年  代 1990
产  地 美国
类  别 剧情 / 喜剧 / 爱情
语  言 英语
上映日期 1990-09-11
IMDb评分  6.8/10 from 439 users
IMDb链接  https://www.imdb.com/title/tt0099014
豆瓣评分 0/10 from 0 users
豆瓣链接 https://movie.douban.com/subject/1303668/
片  长 87 分钟
导  演 乔恩·约斯特 Jon Jost
编  剧 乔恩·约斯特 Jon Jost
主  演 艾曼纽·肖莱 Emmanuelle Chaulet

标  签 美国 | 画 | Jon_Jost | 1990 | 艺术家们如何是好 | 艺术 | 剧情 | 美国电影
简  介  
  暂无相关剧情介绍


该资源信息参数
  • Video
  • ID                                       : 1
  • Format                                   : AVC
  • Format/Info                              : Advanced Video Codec
  • Format profile                           : High@L4
  • Format settings                          : CABAC / 4 Ref Frames
  • Format settings, CABAC                   : Yes
  • Format settings, Reference frames        : 4 frames
  • Codec ID                                 : V_MPEG4/ISO/AVC
  • Duration                                 : 1 h 27 min
  • Bit rate mode                            : Constant
  • Bit rate                                 : 10 000 kb/s
  • Width                                    : 1 920 pixels
  • Height                                   : 1 040 pixels
  • Display aspect ratio                     : 1.85:1
  • Frame rate mode                          : Constant
  • Frame rate                               : 24.000 FPS
  • Color space                              : YUV
  • Chroma subsampling                       : 4:2:0
  • Bit depth                                : 8 bits
  • Scan type                                : Progressive
  • Bits/(Pixel*Frame)                       : 0.209
  • Stream size                              : 6.03 GiB (98%)
  • Default                                  : Yes
  • Forced                                   : No
  • Color range                              : Limited
  • Color primaries                          : BT.709
  • Transfer characteristics                 : BT.709
  • Matrix coefficients                      : BT.709
  • Audio
  • ID                                       : 2
  • Format                                   : E-AC-3
  • Format/Info                              : Enhanced AC-3
  • Commercial name                          : Dolby Digital Plus
  • Codec ID                                 : A_EAC3
  • Duration                                 : 1 h 27 min
  • Bit rate mode                            : Constant
  • Bit rate                                 : 224 kb/s
  • Channel(s)                               : 2 channels
  • Channel layout                           : L R
  • Sampling rate                            : 48.0 kHz
  • Frame rate                               : 31.250 FPS (1536 SPF)
  • Compression mode                         : Lossy
  • Stream size                              : 140 MiB (2%)
  • Language                                 : English
  • Service kind                             : Complete Main
  • Default                                  : Yes
  • Forced                                   : No

复制代码










4K321提示您  点击下方附件名称  马上开始下载

画迷在纽约 All.the.Vermeers.in.New.York.1990.1080p.AMZN.WEBRip.DDP2.0.x264-TEPES 6.17GB

All.the.Vermeers.in.New.York.1990.1080p.AMZN.WEBRip.DDP2.0.x264-TEPES.torrent ( 31.4 KB )




               
回复

使用道具 举报

全部回复0 显示全部楼层

声明:您在社区发表的所有信息仅代表用户个人观点,与本网站立场无关,希望各位烧友理性发言,不发表违法国家法律禁止的话题。

您需要登录后才可以回帖 登录 | 立即注册

本版积分规则

联系客服 关注微信 下载APP 返回顶部 返回列表