开启左侧

[喜剧片] 女巫/女巫再现 The.Witches.2020.1080p.BluRay.REMUX.AVC.DTS-HD.MA.5.1-FGT 19.06GB

蓝鸟 发表于 2021-1-7 15:11:34 | 显示全部楼层 |阅读模式
20190801120031.jpg


译  名 女巫 / 女巫再现 / 怪诞黑巫后(港)
片  名 The Witches
年  代 2020
产  地 墨西哥 / 美国
类  别 喜剧 / 悬疑 / 恐怖 / 奇幻 / 冒险
语  言 英语
上映日期 2020-10-22(美国)
IMDb评分  6.7/10 from 33 users
IMDb链接  https://www.imdb.com/title/tt0805647
豆瓣评分 0/10 from 0 users
豆瓣链接 https://movie.douban.com/subject/3346423/
导  演 罗伯特·泽米吉斯 Robert Zemeckis
编  剧 罗伯特·泽米吉斯 Robert Zemeckis / 罗尔德·达尔 Roald Dahl / 肯尼亚·巴里斯 Kenya Barris / 艾伦·斯科特 Allan Scott / 吉尔莫·德尔·托罗 Guillermo del Toro
主  演 安妮·海瑟薇 Anne Hathaway
       奥克塔维亚·斯宾瑟 Octavia Spencer
       斯坦利·图齐 Stanley Tucci
       克里斯汀·肯诺恩斯 Kristin Chenoweth
       克里斯·洛克 Chris Rock
       查尔斯·爱德华兹 Charles Edwards
       尤吉尼亚·克鲁索 Eugenia Caruso
       西蒙·曼永达 Simon Manyonda
       菲利普·斯波 Philippe Spall
       安格斯·瑞特 Angus Wright
       奥尔拉·欧鲁尔克 Orla O"Rourke
       吉米·斯达 Jimmy Star


标  签 安妮·海瑟薇 | 奇幻 | 美国 | 美国电影 | 2020 | 惊悚 | 改编 | AnneHathaway

简  介  

  该片基于罗尔德·达尔(《查理和巧克力工厂》原著作者)所著同名儿童小说,部分设定在挪威,部分设定在英国,讲述一个7岁小男孩和祖母住在一起,这个世界中存在着邪恶女巫,某次他偶遇女巫,被变成了老鼠,他必须尽力阻止她们破坏世界。



该资源信息参数
  • Video
  • ID                                       : 1
  • ID in the original source medium         : 4113 (0x1011)
  • Format                                   : AVC
  • Format/Info                              : Advanced Video Codec
  • Format profile                           : High@L4.1
  • Format settings                          : CABAC / 4 Ref Frames
  • Format settings, CABAC                   : Yes
  • Format settings, Reference frames        : 4 frames
  • Codec ID                                 : V_MPEG4/ISO/AVC
  • Duration                                 : 1 h 44 min
  • Bit rate mode                            : Variable
  • Bit rate                                 : 20.6 Mb/s
  • Maximum bit rate                         : 40.0 Mb/s
  • Width                                    : 1 920 pixels
  • Height                                   : 1 080 pixels
  • Display aspect ratio                     : 16:9
  • Frame rate mode                          : Constant
  • Frame rate                               : 23.976 (24000/1001/1122) FPS
  • Color space                              : YUV
  • Chroma subsampling                       : 4:2:0
  • Bit depth                                : 8 bits
  • Scan type                                : Progressive
  • Bits/(Pixel*Frame)                       : 0.414
  • Stream size                              : 15.0 GiB (79%)
  • Language                                 : English
  • Default                                  : No
  • Forced                                   : No
  • Original source medium                   : Blu-ray
  • Audio #1
  • ID                                       : 2
  • ID in the original source medium         : 4352 (0x1100)
  • Format                                   : DTS XLL
  • Format/Info                              : Digital Theater Systems
  • Commercial name                          : DTS-HD Master Audio
  • Codec ID                                 : A_DTS
  • Duration                                 : 1 h 44 min
  • Bit rate mode                            : Variable
  • Bit rate                                 : 3 626 kb/s
  • Channel(s)                               : 6 channels
  • Channel layout                           : C L R Ls Rs LFE
  • Sampling rate                            : 48.0 kHz
  • Frame rate                               : 93.750 FPS (512 SPF)
  • Bit depth                                : 24 bits
  • Compression mode                         : Lossless
  • Stream size                              : 2.64 GiB (14%)
  • Title                                    : DTS-HD MA 5.1
  • Language                                 : English
  • Default                                  : Yes
  • Forced                                   : No
  • Original source medium                   : Blu-ray
  • Audio #2
  • ID                                       : 3
  • ID in the original source medium         : 4353 (0x1101)
  • Format                                   : AC-3
  • Format/Info                              : Audio Coding 3
  • Commercial name                          : Dolby Digital
  • Codec ID                                 : A_AC3
  • Duration                                 : 1 h 44 min
  • Bit rate mode                            : Constant
  • Bit rate                                 : 640 kb/s
  • Channel(s)                               : 6 channels
  • Channel layout                           : L R C LFE Ls Rs
  • Sampling rate                            : 48.0 kHz
  • Frame rate                               : 31.250 FPS (1536 SPF)
  • Compression mode                         : Lossy
  • Stream size                              : 477 MiB (2%)
  • Title                                    : DD 5.1
  • Language                                 : English
  • Service kind                             : Complete Main
  • Default                                  : No
  • Forced                                   : No
  • Original source medium                   : Blu-ray
  • Audio #3
  • ID                                       : 4
  • ID in the original source medium         : 4354 (0x1102)
  • Format                                   : AC-3
  • Format/Info                              : Audio Coding 3
  • Commercial name                          : Dolby Digital
  • Codec ID                                 : A_AC3
  • Duration                                 : 1 h 44 min
  • Bit rate mode                            : Constant
  • Bit rate                                 : 640 kb/s
  • Channel(s)                               : 6 channels
  • Channel layout                           : L R C LFE Ls Rs
  • Sampling rate                            : 48.0 kHz
  • Frame rate                               : 31.250 FPS (1536 SPF)
  • Compression mode                         : Lossy
  • Stream size                              : 477 MiB (2%)
  • Title                                    : DD 5.1
  • Language                                 : French
  • Service kind                             : Complete Main
  • Default                                  : No
  • Forced                                   : No
  • Original source medium                   : Blu-ray
  • Audio #4
  • ID                                       : 5
  • ID in the original source medium         : 4355 (0x1103)
  • Format                                   : AC-3
  • Format/Info                              : Audio Coding 3
  • Commercial name                          : Dolby Digital
  • Codec ID                                 : A_AC3
  • Duration                                 : 1 h 44 min
  • Bit rate mode                            : Constant
  • Bit rate                                 : 640 kb/s
  • Channel(s)                               : 6 channels
  • Channel layout                           : L R C LFE Ls Rs
  • Sampling rate                            : 48.0 kHz
  • Frame rate                               : 31.250 FPS (1536 SPF)
  • Compression mode                         : Lossy
  • Stream size                              : 477 MiB (2%)
  • Title                                    : DD 5.1
  • Language                                 : Italian
  • Service kind                             : Complete Main
  • Default                                  : No
  • Forced                                   : No
  • Original source medium                   : Blu-ray
  • Text #1
  • ID                                       : 6
  • Format                                   : UTF-8
  • Codec ID                                 : S_TEXT/UTF8
  • Codec ID/Info                            : UTF-8 Plain Text
  • Duration                                 : 1 h 36 min
  • Bit rate                                 : 59 b/s
  • Count of elements                        : 1360
  • Stream size                              : 41.9 KiB (0%)
  • Title                                    : English-SRT
  • Language                                 : English
  • Default                                  : Yes
  • Forced                                   : No
  • Text #2
  • ID                                       : 7
  • ID in the original source medium         : 4608 (0x1200)
  • Format                                   : PGS
  • Muxing mode                              : zlib
  • Codec ID                                 : S_HDMV/PGS
  • Codec ID/Info                            : Picture based subtitle format used on BDs/HD-DVDs
  • Duration                                 : 1 h 36 min
  • Bit rate                                 : 42.9 kb/s
  • Count of elements                        : 3174
  • Stream size                              : 29.6 MiB (0%)
  • Title                                    : English-PGS
  • Language                                 : English
  • Default                                  : No
  • Forced                                   : No
  • Original source medium                   : Blu-ray
  • Text #3
  • ID                                       : 8
  • ID in the original source medium         : 4609 (0x1201)
  • Format                                   : PGS
  • Muxing mode                              : zlib
  • Codec ID                                 : S_HDMV/PGS
  • Codec ID/Info                            : Picture based subtitle format used on BDs/HD-DVDs
  • Duration                                 : 1 h 43 min
  • Bit rate                                 : 30.1 kb/s
  • Count of elements                        : 2732
  • Stream size                              : 22.3 MiB (0%)
  • Title                                    : French-PGS
  • Language                                 : French
  • Default                                  : No
  • Forced                                   : No
  • Original source medium                   : Blu-ray
  • Text #4
  • ID                                       : 9
  • ID in the original source medium         : 4610 (0x1202)
  • Format                                   : PGS
  • Muxing mode                              : zlib
  • Codec ID                                 : S_HDMV/PGS
  • Codec ID/Info                            : Picture based subtitle format used on BDs/HD-DVDs
  • Duration                                 : 1 h 43 min
  • Bit rate                                 : 36.7 kb/s
  • Count of elements                        : 3150
  • Stream size                              : 27.2 MiB (0%)
  • Title                                    : Italian-PGS
  • Language                                 : Italian
  • Default                                  : No
  • Forced                                   : No
  • Original source medium                   : Blu-ray
  • Text #5
  • ID                                       : 10
  • ID in the original source medium         : 4611 (0x1203)
  • Format                                   : PGS
  • Muxing mode                              : zlib
  • Codec ID                                 : S_HDMV/PGS
  • Codec ID/Info                            : Picture based subtitle format used on BDs/HD-DVDs
  • Duration                                 : 1 h 12 min
  • Bit rate                                 : 401 b/s
  • Count of elements                        : 16
  • Stream size                              : 213 KiB (0%)
  • Title                                    : French-FORCED-PGS
  • Language                                 : French
  • Default                                  : No
  • Forced                                   : No
  • Original source medium                   : Blu-ray
  • Text #6
  • ID                                       : 11
  • ID in the original source medium         : 4612 (0x1204)
  • Format                                   : PGS
  • Muxing mode                              : zlib
  • Codec ID                                 : S_HDMV/PGS
  • Codec ID/Info                            : Picture based subtitle format used on BDs/HD-DVDs
  • Duration                                 : 1 h 12 min
  • Bit rate                                 : 376 b/s
  • Count of elements                        : 18
  • Stream size                              : 199 KiB (0%)
  • Title                                    : Italian-FORCED-PGS
  • Language                                 : Italian
  • Default                                  : No
  • Forced                                   : No
  • Original source medium                   : Blu-ray
  • Menu
  • 00:00:00.000                             : en:Chapter 01
  • 00:04:03.868                             : en:Chapter 02
  • 00:13:14.794                             : en:Chapter 03
  • 00:22:01.528                             : en:Chapter 04
  • 00:30:30.119                             : en:Chapter 05
  • 00:38:44.322                             : en:Chapter 06
  • 00:44:19.531                             : en:Chapter 07
  • 00:52:37.154                             : en:Chapter 08
  • 01:00:47.352                             : en:Chapter 09
  • 01:07:36.510                             : en:Chapter 10
  • 01:15:25.312                             : en:Chapter 11
  • 01:22:22.437                             : en:Chapter 12
  • 01:31:18.931                             : en:Chapter 13
  • 01:35:29.640                             : en:Chapter 14

复制代码


20190801120031.jpg


20190801120031.jpg


20190801120031.jpg


4K321提示您  点击下方附件名称  马上开始下载

女巫/女巫再现 The.Witches.2020.1080p.BluRay.REMUX.AVC.DTS-HD.MA.5.1-FGT 19.06GB

The.Witches.2020.1080p.BluRay.REMUX.AVC.DTS-HD.MA.5.1-FGT.torrent ( 95.85 KB )




               
回复

使用道具 举报

全部回复1 显示全部楼层
元一手机认证 发表于 2021-3-31 19:07:19 | 显示全部楼层
谢谢分享
回复

使用道具 举报

声明:您在社区发表的所有信息仅代表用户个人观点,与本网站立场无关,希望各位烧友理性发言,不发表违法国家法律禁止的话题。

您需要登录后才可以回帖 登录 | 立即注册

本版积分规则

联系客服 关注微信 下载APP 返回顶部 返回列表