开启左侧

[喜剧片] 异形魔怪/从地心窜出 Tremors.1990.REMASTERED.1080p.BluRay.REMUX.AVC.DTS-HD.MA.5.1-FGT 25.8

蓝鸟 发表于 2021-1-7 15:09:04 | 显示全部楼层 |阅读模式
20190801120031.jpg


译  名 异形魔怪 / 从地心窜出 / 来自地底深处 / 深渊异形 / 震颤
片  名 Tremors
年  代 1990
产  地 美国
类  别 喜剧 / 恐怖
语  言 英语
上映日期 1990-01-19(美国)
IMDb评分  7.1/10 from 118785 users
IMDb链接  https://www.imdb.com/title/tt0100814
豆瓣评分 7.1/10 from 8905 users
豆瓣链接 https://movie.douban.com/subject/1292599/
片  长 96 分钟
导  演 罗恩·安德伍德 Ron Underwood
编  剧 布伦特·马多克 Brent Maddock / 罗恩·安德伍德 Ron Underwood / S·S·威尔逊 S.S. Wilson
主  演 凯文·贝肯 Kevin Bacon
       弗莱德·沃德 Fred Ward
       Finn Carter
       迈克尔·格罗斯 Michael Gross
       瑞芭·麦肯泰尔 Reba McEntire
       罗伯特·詹 Robert Jayne
       夏洛特·斯图尔特 Charlotte Stewart
       托尼·吉纳罗 Tony Genaro
       阿丽亚娜·理查兹 Ariana Richards
       黄自强 Victor Wong
       Sunshine Parker
       康拉德·巴赫曼 Conrad Bachmann
       比比·贝什 Bibi Besch
       汤姆·伍德鲁夫 Tom Woodruff Jr.


标  签 美国 | 怪物 | 恐怖 | 科幻 | 惊悚 | 喜剧 | 1990 | 美国电影

简  介  

  在一个名为“完美”的宁静小镇上,米奇(凯文·贝肯 Kevin Bacon 饰)和死党巴斯特(弗莱德·沃德 Fred Ward 饰)又度过了属于他们的平静一天。对于在这个无趣的小镇里从事着一份又一份没有前途,仅能糊口的工作这一事实,两个血气方刚的年轻人感到十分无奈和困扰。终于,他们决定要走出完美镇,开始他们多姿多彩的新生活,而就在此时,通向镇外的唯一一条公路莫名塌陷了,某些不详的征兆开始显现。早在数星期之前,镇上发生了家畜神秘失踪的恐怖事件,同时,地质系学生蕾贝卡( 芬妮·卡特 Finn Carter 饰)发现小镇的地壳运动十分异常。现在,众人终于将这些纷乱的线索拼凑到了一起,在大家的脚下,黑不见光的地底,究竟是什么在蠢蠢欲动?



该资源信息参数
  • Video
  • ID                                       : 1
  • ID in the original source medium         : 4113 (0x1011)
  • Format                                   : AVC
  • Format/Info                              : Advanced Video Codec
  • Format profile                           : High@L4.1
  • Format settings                          : CABAC / 3 Ref Frames
  • Format settings, CABAC                   : Yes
  • Format settings, Reference frames        : 3 frames
  • Codec ID                                 : V_MPEG4/ISO/AVC
  • Duration                                 : 1 h 36 min
  • Bit rate mode                            : Variable
  • Bit rate                                 : 29.9 Mb/s
  • Maximum bit rate                         : 35.0 Mb/s
  • Width                                    : 1 920 pixels
  • Height                                   : 1 080 pixels
  • Display aspect ratio                     : 16:9
  • Frame rate mode                          : Constant
  • Frame rate                               : 23.976 (24000/1001/45778) FPS
  • Color space                              : YUV
  • Chroma subsampling                       : 4:2:0
  • Bit depth                                : 8 bits
  • Scan type                                : Progressive
  • Bits/(Pixel*Frame)                       : 0.601
  • Stream size                              : 20.0 GiB (77%)
  • Language                                 : English
  • Default                                  : No
  • Forced                                   : No
  • Color range                              : Limited
  • Color primaries                          : BT.709
  • Transfer characteristics                 : BT.709
  • Matrix coefficients                      : BT.709
  • Original source medium                   : Blu-ray
  • Audio #1
  • ID                                       : 2
  • ID in the original source medium         : 4354 (0x1102)
  • Format                                   : DTS XLL
  • Format/Info                              : Digital Theater Systems
  • Commercial name                          : DTS-HD Master Audio
  • Codec ID                                 : A_DTS
  • Duration                                 : 1 h 36 min
  • Bit rate mode                            : Variable
  • Bit rate                                 : 3 655 kb/s
  • Channel(s)                               : 6 channels
  • Channel layout                           : C L R Ls Rs LFE
  • Sampling rate                            : 48.0 kHz
  • Frame rate                               : 93.750 FPS (512 SPF)
  • Bit depth                                : 24 bits
  • Compression mode                         : Lossless
  • Stream size                              : 2.45 GiB (9%)
  • Title                                    : DTS-HD MA 5.1
  • Language                                 : English
  • Default                                  : Yes
  • Forced                                   : No
  • Original source medium                   : Blu-ray
  • Audio #2
  • ID                                       : 3
  • ID in the original source medium         : 4353 (0x1101)
  • Format                                   : DTS XLL
  • Format/Info                              : Digital Theater Systems
  • Commercial name                          : DTS-HD Master Audio
  • Codec ID                                 : A_DTS
  • Duration                                 : 1 h 35 min
  • Bit rate mode                            : Variable
  • Bit rate                                 : 2 876 kb/s
  • Channel(s)                               : 4 channels
  • Channel layout                           : C L R Cb
  • Sampling rate                            : 48.0 kHz
  • Frame rate                               : 93.750 FPS (512 SPF)
  • Bit depth                                : 24 bits
  • Compression mode                         : Lossless
  • Stream size                              : 1.93 GiB (7%)
  • Title                                    : DTS-HD MA 4.0
  • Language                                 : English
  • Default                                  : No
  • Forced                                   : No
  • Original source medium                   : Blu-ray
  • Audio #3
  • ID                                       : 4
  • ID in the original source medium         : 4352 (0x1100)
  • Format                                   : DTS XLL
  • Format/Info                              : Digital Theater Systems
  • Commercial name                          : DTS-HD Master Audio
  • Codec ID                                 : A_DTS
  • Duration                                 : 1 h 35 min
  • Bit rate mode                            : Variable
  • Bit rate                                 : 1 734 kb/s
  • Channel(s)                               : 2 channels
  • Channel layout                           : L R
  • Sampling rate                            : 48.0 kHz
  • Frame rate                               : 93.750 FPS (512 SPF)
  • Bit depth                                : 24 bits
  • Compression mode                         : Lossless
  • Stream size                              : 1.16 GiB (5%)
  • Title                                    : DTS-HD MA 2.0
  • Language                                 : English
  • Default                                  : No
  • Forced                                   : No
  • Original source medium                   : Blu-ray
  • Audio #4
  • ID                                       : 5
  • ID in the original source medium         : 4355 (0x1103)
  • Format                                   : AC-3
  • Format/Info                              : Audio Coding 3
  • Commercial name                          : Dolby Digital
  • Codec ID                                 : A_AC3
  • Duration                                 : 1 h 36 min
  • Bit rate mode                            : Constant
  • Bit rate                                 : 192 kb/s
  • Channel(s)                               : 2 channels
  • Channel layout                           : L R
  • Sampling rate                            : 48.0 kHz
  • Frame rate                               : 31.250 FPS (1536 SPF)
  • Compression mode                         : Lossy
  • Stream size                              : 132 MiB (0%)
  • Title                                    : DD2.0
  • Language                                 : English
  • Service kind                             : Complete Main
  • Default                                  : No
  • Forced                                   : No
  • Original source medium                   : Blu-ray
  • Audio #5
  • ID                                       : 6
  • ID in the original source medium         : 4356 (0x1104)
  • Format                                   : AC-3
  • Format/Info                              : Audio Coding 3
  • Commercial name                          : Dolby Digital
  • Codec ID                                 : A_AC3
  • Duration                                 : 1 h 36 min
  • Bit rate mode                            : Constant
  • Bit rate                                 : 192 kb/s
  • Channel(s)                               : 2 channels
  • Channel layout                           : L R
  • Sampling rate                            : 48.0 kHz
  • Frame rate                               : 31.250 FPS (1536 SPF)
  • Compression mode                         : Lossy
  • Stream size                              : 132 MiB (0%)
  • Title                                    : DD2.0
  • Language                                 : English
  • Service kind                             : Complete Main
  • Default                                  : No
  • Forced                                   : No
  • Original source medium                   : Blu-ray
  • Text #1
  • ID                                       : 7
  • Format                                   : UTF-8
  • Codec ID                                 : S_TEXT/UTF8
  • Codec ID/Info                            : UTF-8 Plain Text
  • Duration                                 : 1 h 34 min
  • Bit rate                                 : 53 b/s
  • Count of elements                        : 1157
  • Stream size                              : 37.0 KiB (0%)
  • Title                                    : English-SRT
  • Language                                 : English
  • Default                                  : Yes
  • Forced                                   : No
  • Text #2
  • ID                                       : 8
  • ID in the original source medium         : 4608 (0x1200)
  • Format                                   : PGS
  • Muxing mode                              : zlib
  • Codec ID                                 : S_HDMV/PGS
  • Codec ID/Info                            : Picture based subtitle format used on BDs/HD-DVDs
  • Duration                                 : 1 h 35 min
  • Bit rate                                 : 38.3 kb/s
  • Count of elements                        : 2582
  • Stream size                              : 26.0 MiB (0%)
  • Title                                    : English-PGS
  • Language                                 : English
  • Default                                  : No
  • Forced                                   : No
  • Original source medium                   : Blu-ray
  • Menu
  • 00:00:00.000                             : en:Chapter 01
  • 00:08:30.426                             : en:Chapter 02
  • 00:15:49.156                             : en:Chapter 03
  • 00:22:40.442                             : en:Chapter 04
  • 00:31:33.641                             : en:Chapter 05
  • 00:40:33.431                             : en:Chapter 06
  • 00:47:51.326                             : en:Chapter 07
  • 00:55:55.101                             : en:Chapter 08
  • 01:01:34.482                             : en:Chapter 09
  • 01:10:34.980                             : en:Chapter 10
  • 01:21:12.284                             : en:Chapter 11
  • 01:27:44.926                             : en:Chapter 12

复制代码


20190801120031.jpg


20190801120031.jpg


20190801120031.jpg


4K321提示您  点击下方附件名称  马上开始下载

异形魔怪/从地心窜出 Tremors.1990.REMASTERED.1080p.BluRay.REMUX.AVC.DTS-HD.MA.5.1-FGT 25.84GB

Tremors.1990.REMASTERED.1080p.BluRay.REMUX.AVC.DTS-HD.MA.5.1-FGT.torrent ( 65.16 KB )




               
回复

使用道具 举报

全部回复0 显示全部楼层

声明:您在社区发表的所有信息仅代表用户个人观点,与本网站立场无关,希望各位烧友理性发言,不发表违法国家法律禁止的话题。

您需要登录后才可以回帖 登录 | 立即注册

本版积分规则

联系客服 关注微信 下载APP 返回顶部 返回列表