开启左侧

[其它] 生于埃温监狱 Born.in.Evin.2019.1080p.BluRay.x264-BiPOLAR 6.62GB

蓝鸟 发表于 2021-1-6 18:20:21 | 显示全部楼层 |阅读模式
[attachimg]-2[/attachimg]


译  名 生于埃温监狱
片  名 Born In Evin
年  代 2019
产  地 德国 / 奥地利
类  别 纪录片
语  言 德语 / 英语 / 法语 / 波斯语
上映日期 2019-02-09(柏林国际电影节) / 2019-10-17(德国)
IMDb评分  7.8/10 from 54 users
IMDb链接  https://www.imdb.com/title/tt5838526
豆瓣评分 0/10 from 0 users
豆瓣链接 https://movie.douban.com/subject/30438122/
片  长 95分钟
导  演 玛丽安·扎瑞 Maryam Zaree
编  剧 玛丽安·扎瑞 Maryam Zaree
标  签 Berlinale69 | 德國 | 伊朗 | social | impact | awards | 2019
简  介  
  导演兼演员MaryamZaree试图揭示自己在伊朗最臭名昭著的持不同政见者监狱之一Evin出生的情况。四十年前,伊朗国王和他的伊朗君主制被推翻。在获得权力后,新的国家元首和宗教领袖阿亚图拉·霍梅尼(Ayatollah Khomeini)逮捕并折磨了数万名政治对手,其中包括电影制片人的父母。这个后来逃到德国的家庭,从未详细讨论过他们这一段生活。经过数年的犹豫,玛里亚姆·扎雷最终决定解决数十年来的沉默:迫害和暴力对他们造成的创伤是如何铭刻在幸存者及其子女的身体和灵魂中的?幸存者如何在个人层面应对犯罪者仍然享有不受惩罚的权力地位这一事实?当其中一个当事人试图从她家庭中最亲密的成员中根除密集的镇压时,这在政治上意味着什么?Director and actor Maryam Zaree seeks to shed light on the circumstances of her own birth in Evin, one of Iran’s most notorious prisons for dissidents. Forty years ago, the Shah, and the Iranian monarchy with him, was overthrown. After gaining power, Ayatollah Khomeini, the new head of state and religious leader, had tens of thousands of political opponents arrested and tortured, including the filmmaker’s parents. The family, that was later able to flee to Germany, has never discussed this period of their lives in detail. After years of hesitation, Maryam Zaree finally decides to address the decades of silence: how did their trauma as a result of persecution and violence inscribe itself in the bodies and souls of the survivors and their children? How do survivors cope on a personal level with the fact that the perpetrators still enjoy positions of power with impunity? And what does it mean politically when one of the parties involved tries to cut through the dense undergrowth of repression that exists amongst the closest members of her family?


该资源信息参数
  • Video
  • ID                                       : 1
  • Format                                   : AVC
  • Format/Info                              : Advanced Video Codec
  • Format profile                           : High@L4.1
  • Format settings                          : CABAC / 4 Ref Frames
  • Format settings, CABAC                   : Yes
  • Format settings, Reference frames        : 4 frames
  • Codec ID                                 : V_MPEG4/ISO/AVC
  • Duration                                 : 1 h 35 min
  • Bit rate                                 : 9 347 kb/s
  • Width                                    : 1 920 pixels
  • Height                                   : 1 080 pixels
  • Display aspect ratio                     : 16:9
  • Frame rate mode                          : Constant
  • Frame rate                               : 25.000 FPS
  • Color space                              : YUV
  • Chroma subsampling                       : 4:2:0
  • Bit depth                                : 8 bits
  • Scan type                                : Progressive
  • Bits/(Pixel*Frame)                       : 0.180
  • Stream size                              : 6.27 GiB (95%)
  • Writing library                          : x264 core 161 r3027 4121277
  • Encoding settings                        : cabac=1 / ref=4 / deblock=1:-3:-3 / analyse=0x3:0x133 / me=umh / subme=10 / psy=1 / psy_rd=1.00:0.15 / mixed_ref=1 / me_range=24 / chroma_me=1 / trellis=2 / 8x8dct=1 / cqm=0 / deadzone=21,11 / fast_pskip=1 / chroma_qp_offset=-3 / threads=18 / lookahead_threads=3 / sliced_threads=0 / nr=0 / decimate=1 / interlaced=0 / bluray_compat=0 / constrained_intra=0 / bframes=8 / b_pyramid=2 / b_adapt=2 / b_bias=0 / direct=3 / weightb=1 / open_gop=0 / weightp=2 / keyint=250 / keyint_min=25 / scenecut=40 / intra_refresh=0 / rc_lookahead=60 / rc=crf / mbtree=1 / crf=17.0 / qcomp=0.60 / qpmin=0 / qpmax=69 / qpstep=4 / ip_ratio=1.40 / aq=3:0.60
  • Language                                 : English
  • Default                                  : Yes
  • Forced                                   : No
  • Audio
  • ID                                       : 2
  • Format                                   : FLAC
  • Format/Info                              : Free Lossless Audio Codec
  • Codec ID                                 : A_FLAC
  • Duration                                 : 1 h 35 min
  • Bit rate mode                            : Variable
  • Bit rate                                 : 527 kb/s
  • Channel(s)                               : 2 channels
  • Channel layout                           : L R
  • Sampling rate                            : 48.0 kHz
  • Frame rate                               : 11.719 FPS (4096 SPF)
  • Bit depth                                : 16 bits
  • Compression mode                         : Lossless
  • Stream size                              : 362 MiB (5%)
  • Writing library                          : libFLAC 1.2.1 (UTC 2007-09-17)
  • Language                                 : English
  • Default                                  : Yes
  • Forced                                   : No
  • Menu
  • 00:00:00.000                             : en:00:00:00.000
  • 00:05:40.740                             : en:00:05:40.740
  • 00:10:53.853                             : en:00:10:53.853
  • 00:17:41.460                             : en:00:17:41.460
  • 00:24:34.673                             : en:00:24:34.673
  • 00:33:38.817                             : en:00:33:38.817
  • 00:39:48.786                             : en:00:39:48.786
  • 00:54:38.876                             : en:00:54:38.876
  • 01:00:14.411                             : en:01:00:14.411
  • 01:09:23.760                             : en:01:09:23.760
  • 01:18:38.314                             : en:01:18:38.314
  • 01:30:57.852                             : en:01:30:57.852

复制代码



[attachimg]-2[/attachimg]


4K321提示您  点击下方附件名称  马上开始下载

生于埃温监狱 Born.in.Evin.2019.1080p.BluRay.x264-BiPOLAR 6.62GB

Born.in.Evin.2019.1080p.BluRay.x264-BiPOLAR.torrent ( 33.82 KB )




               
回复

使用道具 举报

全部回复0 显示全部楼层

声明:您在社区发表的所有信息仅代表用户个人观点,与本网站立场无关,希望各位烧友理性发言,不发表违法国家法律禁止的话题。

您需要登录后才可以回帖 登录 | 立即注册

本版积分规则

联系客服 关注微信 下载APP 返回顶部 返回列表