开启左侧

棕榈树与输电线4k.Palm.Trees.and.Power.Lines.2022.2160p.AMZN.WEB-DL.x265.8bit.SDR.DDP5.1-4k电影

蓝鸟 发表于 2023-3-10 07:39:12 | 显示全部楼层 |阅读模式
棕榈树与输电线 豆瓣评分: 无评分
上映时间:2022年        影片时长:110分钟
类型:剧情 
地区:美国 
导演:杰米·戴克
主演:格瑞辰·摩尔 / 乔纳森·塔克 / 阿玛尼·杰克森 / 肯尼·约翰斯顿 / 约翰·明奇
画质标准:4K  封装音轨:Dolby TrueHD 5.1 
  • 电影下载
  • 影片简介
  • 影片参数
  • 下载说明
  • 网盘/云盘/BT 下载 Cloud storage / Cloud disk / BT download
  • 《棕榈树与输电线》剧情简介 Film Introduction
    一个十几岁的女孩叫Lea,她与一个年龄是她两倍的男人建立了关系。Lea认为他是她所有问题的解决方案,但他的意图并不像看上去的那样。


    网盘/云盘/BT 下载 Cloud storage / Cloud disk / BT download
  • 《棕榈树与输电线》影片INFO Video INFO
    Video
    ID : 1
    Format : HEVC
    Format/Info : High Efficiency Video Coding
    Format profile : Main@L5@Main
    Codec ID : V_MPEGH/ISO/HEVC
    Duration : 1 h 50 min
    Bit rate : 14.8 Mb/s
    Width : 3 840 pixels
    Height : 1 600 pixels
    Display aspect ratio : 2.40:1
    Frame rate mode : Constant
    Frame rate : 23.976 (24000/1001) FPS
    Color space : YUV
    Chroma subsampling : 4:2:0
    Bit depth : 8 bits
    Bits/(Pixel*Frame) : 0.101
    Stream size : 11.5 GiB (96%)
    Language : English (US)
    Default : Yes
    Forced : No
    Color range : Limited
    Color primaries : BT.709
    Transfer characteristics : BT.709
    Matrix coefficients : BT.709


    Audio
    ID : 2
    Format : E-AC-3
    Format/Info : Enhanced AC-3
    Commercial name : Dolby Digital Plus
    Codec ID : A_EAC3
    Duration : 1 h 50 min
    Bit rate mode : Constant
    Bit rate : 640 kb/s
    Channel(s) : 6 channels
    Channel layout : L R C LFE Ls Rs
    Sampling rate : 48.0 kHz
    Frame rate : 31.250 FPS (1536 SPF)
    Compression mode : Lossy
    Stream size : 506 MiB (4%)
    Language : English
    Service kind : Complete Main
    Default : Yes
    Forced : No


    Text #1
    ID : 3
    Format : UTF-8
    Codec ID : S_TEXT/UTF8
    Codec ID/Info : UTF-8 Plain Text
    Duration : 1 h 45 min
    Bit rate : 29 b/s
    Frame rate : 0.146 FPS
    Count of elements : 926
    Stream size : 22.6 KiB (0%)
    Language : English (US)
    Default : No
    Forced : No


    Text #2
    ID : 4
    Format : UTF-8
    Codec ID : S_TEXT/UTF8
    Codec ID/Info : UTF-8 Plain Text
    Duration : 1 h 46 min
    Bit rate : 32 b/s
    Frame rate : 0.169 FPS
    Count of elements : 1086
    Stream size : 25.2 KiB (0%)
    Title : SDH
    Language : English (US)
    Default : No
    Forced : No


    Text #3
    ID : 5
    Format : UTF-8
    Codec ID : S_TEXT/UTF8
    Codec ID/Info : UTF-8 Plain Text
    Duration : 1 h 45 min
    Bit rate : 26 b/s
    Frame rate : 0.144 FPS
    Count of elements : 913
    Stream size : 20.3 KiB (0%)
    Title : Canadian
    Language : French (CA)
    Default : No
    Forced : No



    网盘/云盘/BT 下载 Cloud storage / Cloud disk / BT download
  • 下载电影三步骤
    1、在《4K电影列表》找到并打开电影详情页,点击BT种子文件或复制磁力链,将BT种子下载到电脑中。
    2、电脑安装《BT下载软件》,免费的推荐使用《UTorrent》下载,收费的推荐使用《115网盘》下载(速度又快又稳).
    3、用BT下载软件,打开BT种子、或将磁力链复制粘贴到BT软件中即可下载。


    本站4K电影版块资源99%是真4K,都是从UHD蓝光碟片中提取而来!本站未发布的4K资源,全网都没有(除非假4K),所以发帖求资源也没用。

    下载速度慢怎么办
    1、正常情况使用《UTorrent》跟着网站发布资源节奏下载速度很快,可以达到宽带最大速度(电信)
    2、推荐使用《115网盘》下载速度又快又稳定,请勿使用迅雷下载;
    3、下载慢是有多方面原因,即依赖种子的热度、也要求是电信宽带(非移动/联通),同时选择对的下载软件和软件设置方法。
    4、使用BT协议下载没有速度,请更新《Trackers服务器》能够增加在线用户(越多越好),该方法使用《UTorrent》下载效果显著。
    更多下载问题参考: 4K电影下载新手学院>>

    多个种子/电影版本区别
    蓝光原盘BDMV
    俗称4K蓝光原盘,也就是从4K UHD蓝光碟中提取出来的源文件,由多个m2ts文件组成,与正版盘完全一致,且包含了光盘所有内容 (影片花絮、字幕、导航菜单、多语言多音轨、HDR 信息)等等,文件体积大,一部电影约有60GB+。此版本资源一般以「BDMV 文件夹」或「BDISO」 (iso) 格式发布;该版本可以用刻录机成带导航的光盘效果。

    DIY蓝光原盘BDMV
    经资源制作组基于蓝光原盘BDMV版本进行第二次DIY的版本,将片头AE特效、画面HDR调色、封装国语音轨、封装中文简体/繁体/英文等多语言字幕,更精彩的是是特效字幕(将电影画面中某些细节翻译成中文字幕)。

    蓝光BD-REMUX
    俗称REMUX,可以视为「音画质无损的精简版」"4K原盘",它其实就是将原盘里多余的一些音轨、花絮、菜单、字幕等东西移除或精简,仅保留主要的视频、主要音轨和部分语言字幕,然后再封装成「单个文件」的 .mkv 格式而来,其音质画质与BDMV蓝光原盘一致,但文件体积上能大幅缩减且成单个文件,在电脑上播放/管理/电视播放/播放器播放和分享起来也更方便。适合追求原盘音画质、不重视花絮周边内容、又希望稍微节省点硬盘空间的朋友。

    WEB-DL/WEBRip/流媒体版本
    WEB-DL 或 WEBRip 格式的影片主要来自 、Amazon Prime Video、Netflix、Hulu、YouTube 等「在线网络高清片源」。尽管这些服务提供了4K分辨率 (部分含 HDR) 的片源,但它们为了在线观看的流畅性,都会将视频画质进行较大幅度「有损压缩」。 WEB-DL 是 Web Download 的意思,指通过技术手段「直接下载」回来的在线视频 WEBRip 很多时候则是通过"屏幕转录"等方式二次录制,会造成多一次的画质损失。



    网盘/云盘/BT 下载 Cloud storage / Cloud disk / BT download
棕榈树与输电线4k.Palm.Trees.and.Power.Lines.2022.2160p.AMZN.WEB-DL.x265.8bit.SDR.DDP5.1-4k电影下载

棕榈树与输电线4k.Palm.Trees.and.Power.Lines.2022.2160p.AMZN.WEB-DL.x265.8bit.SDR.DDP5.1【11.95 GB】

棕榈树与输电线4k.Palm.Trees.and.Power.Lines.2022.2160p.AMZN.WEB-DL.x265.8bit.SDR.DDP5.1-CM.torrent ( 15.6 KB )




回复

使用道具 举报

全部回复1 显示全部楼层
龙之梦2023 发表于 2023-3-29 19:01:54 | 显示全部楼层
支持一下!!!应该不错的电影
回复 支持 反对

使用道具 举报

声明:您在社区发表的所有信息仅代表用户个人观点,与本网站立场无关,希望各位烧友理性发言,不发表违法国家法律禁止的话题。

您需要登录后才可以回帖 登录 | 立即注册

本版积分规则

联系客服 关注微信 下载APP 返回顶部 返回列表